Rampart 2011 DVDScr XVID AC3 Hive-CM8

iNFo:
http://www.imdb.com/title/tt1251743/
General
Complete name : Rampart.2011.DVDScr.XVID.AC3.Hive-CM8.avi
Format : AVI
Format/Info : Audio Video Interleave
File size : 1.54 GiB
Duration : 1h 48mn
Overall bit rate : 2 044 Kbps
Writing application : Nandub v1.0rc2
Writing library : Nandub build 1853/release

Video
ID : 0
Format : MPEG-4 Visual
Format profile : Advanced [email protected]
Format settings, BVOP : 2
Format settings, QPel : Yes
Format settings, GMC : No warppoints
Format settings, Matrix : Default (H.263)
Muxing mode : Packed bitstream
Codec ID : XVID
Codec ID/Hint : XviD
Duration : 1h 48mn
Bit rate : 1 842 Kbps
Width : 720 pixels
Height : 304 pixels
Display aspect ratio : 2.35:1
Frame rate : 23.976 fps
Color space : YUV
Chroma subsampling : 4:2:0
Bit depth : 8 bits
Scan type : Progressive
Compression mode : Lossy
Bits/(Pixel*Frame) : 0.351
Stream size : 1.39 GiB (90%)
Writing library : XviD 1.2.1 (UTC 2008-12-04)

Audio
ID : 1
Format : AC-3
Format/Info : Audio Coding 3
Format profile : Dolby Digital
Mode extension : CM (complete main)
Codec ID : 2000
Duration : 1h 48mn
Bit rate mode : Constant
Bit rate : 192 Kbps
Channel(s) : 2 channels
Channel positions : Front: L R
Sampling rate : 48.0 KHz
Bit depth : 16 bits
Compression mode : Lossy
Stream size : 148 MiB (9%)
Alignment : Split accross interleaves
Interleave, duration : 42 ms (1.00 video frame)
Interleave, preload duration : 500 ms



1-LINK:
http://www.filejungle.com/f/udAKPF/R...3.Hive-CM8.rar
Or
http://www.filesonic.com/file/405529...3.Hive-CM8.rar
Or
http://www.fileserve.com/file/yzgAY3...3.Hive-CM8.rar

450mb-iNTERCHANGEABLE:
http://www.filejungle.com/f/KDBfDr/R....avi.part1.rar
http://www.filejungle.com/f/YmahDY/R....avi.part2.rar
http://www.filejungle.com/f/yUbDGv/R....avi.part3.rar
http://www.filejungle.com/f/7TYjkh/R....avi.part4.rar
Or
http://www.filesonic.com/file/405518....avi.part1.rar
http://www.filesonic.com/file/405516....avi.part2.rar
http://www.filesonic.com/file/405522....avi.part3.rar
http://www.filesonic.com/file/405510....avi.part4.rar
Or
http://www.fileserve.com/file/Xp9h9T....avi.part1.rar
http://www.fileserve.com/file/uQ2GrK....avi.part2.rar
http://www.fileserve.com/file/47ZynZ....avi.part3.rar
http://www.fileserve.com/file/HVZDfP....avi.part4.rar
Please-Say-Thanks-To-Keep-The-Topic-Alive.