The Thing 2011 RC BDRip LiNE HC XviD DTRG

iNFo:
http://www.imdb.com/title/tt0905372/
Format : AVI
Format/Info : Audio Video Interleave
File size : 1.53 GiB
Duration : 1h 37mn
Overall bit rate : 2 240 Kbps
Writing library : VirtualDub build 32842/release

Video
ID : 0
Format : MPEG-4 Visual
Format profile : Advanced [email protected]
Format settings, BVOP : 1
Format settings, QPel : No
Format settings, GMC : No warppoints
Format settings, Matrix : Default (H.263)
Muxing mode : Packed bitstream
Codec ID : XVID
Codec ID/Hint : XviD
Duration : 1h 37mn
Bit rate : 1 847 Kbps
Width : 720 pixels
Height : 304 pixels
Display aspect ratio : 2.35:1
Frame rate : 25.000 fps
Color space : YUV
Chroma subsampling : 4:2:0
Bit depth : 8 bits
Scan type : Progressive
Compression mode : Lossy
Bits/(Pixel*Frame) : 0.337
Stream size : 1.26 GiB (82%)
Writing library : XviD 64

Audio
ID : 1
Format : AC-3
Format/Info : Audio Coding 3
Mode extension : CM (complete main)
Codec ID : 2000
Duration : 1h 37mn
Bit rate mode : Constant
Bit rate : 384 Kbps
Channel(s) : 2 channels
Channel positions : Front: L R
Sampling rate : 44.1 KHz
Bit depth : 16 bits
Compression mode : Lossy
Stream size : 268 MiB (17%)
Alignment : Split accross interleaves
Interleave, duration : 40 ms (1.00 video frame)
Interleave, preload duration : 500 ms



1-LINK:
http://www.filejungle.com/f/hnjamG/T....XviD-DTRG.rar
Or
http://www.filesonic.com/file/405398....XviD-DTRG.rar
Or
http://www.fileserve.com/file/DeWgR2....XviD-DTRG.rar

450mb-iNTERCHANGEABLE:
http://www.filejungle.com/f/cpcmfq/T....avi.part1.rar
http://www.filejungle.com/f/bEzfTZ/T....avi.part2.rar
http://www.filejungle.com/f/F6U5hC/T....avi.part3.rar
http://www.filejungle.com/f/qduZm8/T....avi.part4.rar
Or
http://www.filesonic.com/file/405395....avi.part1.rar
http://www.filesonic.com/file/405395....avi.part2.rar
http://www.filesonic.com/file/405395....avi.part3.rar
http://www.filesonic.com/file/405395....avi.part4.rar
Or
http://www.fileserve.com/file/XaT8Eq....avi.part1.rar
http://www.fileserve.com/file/QHufZy....avi.part2.rar
http://www.fileserve.com/file/j3M7XV....avi.part3.rar
http://www.fileserve.com/file/jtQ8ge....avi.part4.rar
Please-Say-Thanks-To-Keep-The-Topic-Alive.