Jack and Jill 2011 TS READNFO XViD-DTRG

iNFo:
http://www.imdb.com/title/tt0810913/
Format : AVI
Format/Info : Audio Video Interleave
File size : 1.62 GiB
Duration : 1h 28mn
Overall bit rate : 2 611 Kbps
Writing library : VirtualDub build 32842/release

Video
ID : 0
Format : MPEG-4 Visual
Format profile : Advanced [email protected]
Format settings, BVOP : 1
Format settings, QPel : No
Format settings, GMC : No warppoints
Format settings, Matrix : Default (H.263)
Muxing mode : Packed bitstream
Codec ID : XVID
Codec ID/Hint : XviD
Duration : 1h 28mn
Bit rate : 2 474 Kbps
Width : 624 pixels
Height : 352 pixels
Display aspect ratio : 16:9
Frame rate : 23.976 fps
Color space : YUV
Chroma subsampling : 4:2:0
Bit depth : 8 bits
Scan type : Progressive
Compression mode : Lossy
Bits/(Pixel*Frame) : 0.470
Stream size : 1.53 GiB (95%)
Writing library : XviD 64

Audio
ID : 1
Format : MPEG Audio
Format version : Version 1
Format profile : Layer 3
Codec ID : 55
Codec ID/Hint : MP3
Duration : 1h 28mn
Bit rate mode : Constant
Bit rate : 128 Kbps
Channel(s) : 2 channels
Sampling rate : 44.1 KHz
Compression mode : Lossy
Delay relative to video : 15ms
Stream size : 81.2 MiB (5%)
Alignment : Split accross interleaves
Interleave, duration : 42 ms (1.00 video frame)
Interleave, preload duration : 500 ms



1-LINK:
http://www.filesonic.com/file/404751..._XViD_DTRG.rar
Or
http://www.filejungle.com/f/Q4Vk5x/J..._XViD_DTRG.rar
Or
http://www.fileserve.com/file/jfZyGQ..._XViD_DTRG.rar

450mb-iNTERCHANGEABLE:
http://www.filesonic.com/file/404749....avi.part1.rar
http://www.filesonic.com/file/404749....avi.part2.rar
http://www.filesonic.com/file/404750....avi.part3.rar
http://www.filesonic.com/file/404749....avi.part4.rar
Or
http://www.filejungle.com/f/vM3RdU/J....avi.part1.rar
http://www.filejungle.com/f/GbeW3d/J....avi.part2.rar
http://www.filejungle.com/f/Haz3uC/J....avi.part3.rar
http://www.filejungle.com/f/MQgcwu/J....avi.part4.rar
Or
http://www.fileserve.com/file/MaKPWw....avi.part1.rar
http://www.fileserve.com/file/G8J394....avi.part2.rar
http://www.fileserve.com/file/SZxsxq....avi.part3.rar
http://www.fileserve.com/file/8dxzy8....avi.part4.rar
Please-Say-Thanks-To-Keep-The-Topic-Alive.