IMDBLINK

http://www.imdb.com/title/tt1321861/

STORYLINE

A single mom and her child are carjacked by a bank robber.
INFORMATION

Carjacked.2011.BRRip.XviD-nCODE
Format : AVI
Format/Info : Audio Video Interleave
File size : 703 MiB
Duration : 1h 29mn
Overall bit rate : 1 099 Kbps
Video
ID : 0
Format : MPEG-4 Visual
Format profile : Advanced [email protected]
Format settings, BVOP : 2
Format settings, QPel : No
Format settings, GMC : No warppoints
Format settings, Matrix : Default (H.263)
Codec ID : XVID
Codec ID/Hint : XviD
Duration : 1h 29mn
Bit rate : 934 Kbps
Width : 640 pixels
Height : 272 pixels
Display aspect ratio : 2.35:1
Frame rate : 23.976 fps
Color space : YUV
Chroma subsampling : 4:2:0
Bit depth : 8 bits
Scan type : Progressive
Compression mode : Lossy
Bits/(Pixel*Frame) : 0.224
Stream size : 597 MiB (85%)
Writing library : XviD 1.2.1 (UTC 2008-12-04)
Audio
ID : 1
Format : MPEG Audio
Format version : Version 1
Format profile : Layer 3
Mode : Joint stereo
Codec ID : 55
Codec ID/Hint : MP3
Duration : 1h 29mn
Bit rate mode : Constant
Bit rate : 160 Kbps
Channel(s) : 2 channels
Sampling rate : 48.0 KHz
Compression mode : Lossy
Stream size : 102 MiB (15%)
Alignment : Aligned on interleaves
Interleave, duration : 167 ms (4.00 video frames)
Interleave, preload duration : 216 ms
Title : ### ViSiT nCODE @ W-BB ###
Writing library : LAME3.98r
Encoding settings : -m j -V 4 -q 2 -lowpass 17.5 -b 160
usual filters, good video bitrate , good audio bitrate, nice load, clear & in-sync
hope u njoy!!
SCREENS







ALL MY UPLOADS ARE 100% WORKING AND LEGIT, NO FAKE
YOU CAN USE DIFFERENT DOWNLOAD SERVERS, ALL FILES ARE THE SAME! LINKS ARE INTERCHANGABLE !

SUPPORT ME:
- Please SAY THANKS if you like my post. It'll only take 2 seconds and I'll know you are a nice person.
It will make your post count increase too!!
-If any link is dead please let me know. I'll fix it ASAP

DOWNLOAD

http://www.filesonic.com/file/401424...XviD-nCODE.rar




Download From Fileserve.com

http://www.fileserve.com/file/U752qP...XviD-nCODE.rar




Download From Filejungle.com

http://www.filejungle.com/f/P6AP84/C...XviD-nCODE.rar