Harry.Potter.&.The.Deathly.Hallows.Pt1.2010.DVDrip.XViD-nCODE [798mb]

IMDBLINK

http://www.imdb.com/title/tt0926084/

STORYLINE

Voldemort's power is growing stronger. He now has control over the Ministry of Magic and Hogwarts. Harry, Ron, and Hermione decide to finish Dumbledore's work and find the rest of the Horcruxes to defeat the Dark Lord. But little hope remains for the Trio, and the rest of the Wizarding World, so everything they do must go as planned.
INFORMATION

Harry.Potter.&.The.Deathly.Hallows.Pt1.2010.DVDrip.XViD-nCODE
Format : AVI
Format/Info : Audio Video Interleave
File size : 798 MiB
Duration : 2h 26mn
Overall bit rate : 764 Kbps
Writing application : VirtualDubMod 1.5.10.2 (build 2542/release)
Writing library : VirtualDubMod build 2542/release
Video
ID : 0
Format : MPEG-4 Visual
Format profile : Advanced [email protected]
Format settings, BVOP : 2
Format settings, QPel : No
Format settings, GMC : No warppoints
Format settings, Matrix : Default (H.263)
Codec ID : XVID
Codec ID/Hint : XviD
Duration : 2h 26mn
Bit rate : 664 Kbps
Width : 608 pixels
Height : 256 pixels
Display aspect ratio : 2.35:1
Frame rate : 23.976 fps
Color space : YUV
Chroma subsampling : 4:2:0
Bit depth : 8 bits
Scan type : Progressive
Compression mode : Lossy
Bits/(Pixel*Frame) : 0.178
Stream size : 694 MiB (87%)
Writing library : XviD 1.2.1 (UTC 2008-12-04)
Audio
ID : 1
Format : MPEG Audio
Format version : Version 1
Format profile : Layer 3
Mode : Joint stereo
Mode extension : MS Stereo
Codec ID : 55
Codec ID/Hint : MP3
Duration : 2h 26mn
Bit rate mode : Variable
Bit rate : 89.5 Kbps
Nominal bit rate : 96.0 Kbps
Channel(s) : 2 channels
Sampling rate : 32.0 KHz
Compression mode : Lossy
Stream size : 93.5 MiB (12%)
Alignment : Aligned on interleaves
Interleave, duration : 36 ms (0.86 video frame)
Interleave, preload duration : 315 ms
Writing library : LAME3.98r
Encoding settings : -m j -V 4 -q 2 -lowpass 15.1 --abr 96
Source was DVDR, encoded with AVS & MeGUI, added a few filters to aid
compression and sharpen the video a little.
muxed with Virtualdub to ensure standalone compatibility.
i watched it on a standalone divx player/usb stick last night.
hope you njoy!!
SCREENS










ALL MY UPLOADS ARE 100% WORKING AND LEGIT, NO FAKE
YOU CAN USE DIFFERENT DOWNLOAD SERVERS, ALL FILES ARE THE SAME! LINKS ARE INTERCHANGABLE !

SUPPORT ME:
- Please SAY THANKS if you like my post. It'll only take 2 seconds and I'll know you are a nice person.
It will make your post count increase too!!
-If any link is dead please let me know. I'll fix it ASAP

DOWNLOAD

http://www.filesonic.com/file/401437...XViD-nCODE.rar




Download From Fileserve.com

http://www.fileserve.com/file/Q8qEns...XViD-nCODE.rar




Download From Filejungle.com

http://www.filejungle.com/f/rUNr4Y/H...XViD-nCODE.rar