Footloose 2011 CAM XViD-DTRG

iNFo:
http://www.imdb.com/title/tt1068242/
Format : AVI
Format/Info : Audio Video Interleave
File size : 1.33 GiB
Duration : 1h 48mn
Overall bit rate : 1 758 Kbps
Writing library : VirtualDub build 32842/release

Video
ID : 0
Format : MPEG-4 Visual
Format profile : Advanced [email protected]
Format settings, BVOP : 1
Format settings, QPel : No
Format settings, GMC : No warppoints
Format settings, Matrix : Default (H.263)
Muxing mode : Packed bitstream
Codec ID : XVID
Codec ID/Hint : XviD
Duration : 1h 48mn
Bit rate : 1 620 Kbps
Width : 624 pixels
Height : 268 pixels
Display aspect ratio : 2.35:1
Frame rate : 25.000 fps
Color space : YUV
Chroma subsampling : 4:2:0
Bit depth : 8 bits
Scan type : Progressive
Compression mode : Lossy
Bits/(Pixel*Frame) : 0.388
Stream size : 1.23 GiB (92%)
Writing library : XviD 64

Audio
ID : 1
Format : MPEG Audio
Format version : Version 2
Format profile : Layer 3
Codec ID : 55
Codec ID/Hint : MP3
Duration : 1h 48mn
Bit rate mode : Constant
Bit rate : 128 Kbps
Channel(s) : 2 channels
Sampling rate : 16.0 KHz
Compression mode : Lossy
Delay relative to video : 600ms
Stream size : 99.3 MiB (7%)
Alignment : Split accross interleaves
Interleave, duration : 40 ms (1.00 video frame)
Interleave, preload duration : 500 ms
Writing library : LAME3.98.4UUUUUUUK



1-LINK:
http://www.filesonic.com/file/402072..._XViD-DTRG.rar
Or
http://www.filejungle.com/f/ZggzGT/F..._XViD_DTRG.rar
Or
http://www.fileserve.com/file/3dUKSd..._XViD-DTRG.rar

450mb-iNTERCHANGEABLE:
http://www.filesonic.com/file/402084....avi.part1.rar
http://www.filesonic.com/file/402087....avi.part2.rar
http://www.filesonic.com/file/402084....avi.part3.rar
Or
http://www.filejungle.com/f/A86C7B/F....avi.part1.rar
http://www.filejungle.com/f/tjZP7W/F....avi.part2.rar
http://www.filejungle.com/f/jd8D9f/F....avi.part3.rar
Or
http://www.fileserve.com/file/PD4AhQ....avi.part1.rar
http://www.fileserve.com/file/d4FEYS....avi.part2.rar
http://www.fileserve.com/file/EjGyEa....avi.part3.rar
Please-Say-Thanks-To-Keep-The-Topic-Alive.