Immortals 2011 R6 READNFO XViD - U.S.M

iNFo:
http://www.imdb.com/title/tt1253864/
Video
ID : 0
Format : MPEG-4 Visual
Format profile : Advanced [email protected]
Format settings, BVOP : 2
Format settings, QPel : No
Format settings, GMC : No warppoints
Format settings, Matrix : Default (MPEG)
Muxing mode : Packed bitstream
Codec ID : XVID
Codec ID/Hint : XviD
Duration : 1h 42mn
Bit rate : 1 787 Kbps
Width : 720 pixels
Height : 320 pixels
Display aspect ratio : 2.25:1
Frame rate : 23.976 fps
Color space : YUV
Chroma subsampling : 4:2:0
Bit depth : 8 bits
Scan type : Progressive
Compression mode : Lossy
Bits/(Pixel*Frame) : 0.323
Stream size : 1.28 GiB (90%)
Writing library : XviD 64

Audio
ID : 1
Format : MPEG Audio
Format version : Version 1
Format profile : Layer 3
Codec ID : 55
Codec ID/Hint : MP3
Duration : 1h 42mn
Bit rate mode : Constant
Bit rate : 192 Kbps
Channel(s) : 2 channels
Sampling rate : 48.0 KHz
Compression mode : Lossy
Stream size : 141 MiB (10%)
Alignment : Split accross interleaves
Interleave, duration : 42 ms (1.00 video frame)
Interleave, preload duration : 500 ms
Writing library : LAME3.98.4



1-LINK:
http://www.filejungle.com/f/RBPEM4/I...iD_-_U.S.M.rar
Or
http://www.filesonic.com/file/401898...iD_-_U.S.M.rar
Or
http://www.fileserve.com/file/dSnvF3...iD_-_U.S.M.rar

450mb-iNTERCHANGEABLE:
http://www.filejungle.com/f/3dfF85/I....avi.part1.rar
http://www.filejungle.com/f/HEUtK3/I....avi.part2.rar
http://www.filejungle.com/f/gFwq4G/I....avi.part3.rar
http://www.filejungle.com/f/qtzC5X/I....avi.part4.rar
Or
http://www.filesonic.com/file/401898....avi.part1.rar
http://www.filesonic.com/file/401898....avi.part2.rar
http://www.filesonic.com/file/401897....avi.part3.rar
http://www.filesonic.com/file/401897....avi.part4.rar
Or
http://www.fileserve.com/file/X3txbM....avi.part1.rar
http://www.fileserve.com/file/ZYYgzJ....avi.part2.rar
http://www.fileserve.com/file/2NVwZJ....avi.part3.rar
http://www.fileserve.com/file/D8spZs....avi.part4.rar
http://www.fileserve.com/file/TUDevs....avi.part4.rar
Please-Say-Thanks-To-Keep-The-Topic-Alive.