INFO:

Format : AVI
Format/Info : Audio Video Interleave
File size : 701 MiB
Duration : 55mn 13s
Overall bit rate mode : Variable
Overall bit rate : 1 774 Kbps
Writing application : VirtualDubMod 1.5.10.2 (build 2540/release)
Writing library : VirtualDubMod build 2540/release

Video
ID : 0
Format : MPEG-4 Visual
Format profile : Advanced [email protected]
Format settings, BVOP : 2
Format settings, QPel : No
Format settings, GMC : No warppoints
Format settings, Matrix : Default (H.263)
Codec ID : XVID
Codec ID/Hint : XviD
Duration : 55mn 13s
Bit rate : 1 624 Kbps
Width : 576 pixels
Height : 320 pixels
Display aspect ratio : 16:9
Frame rate : 23.976 fps
Color space : YUV
Chroma subsampling : 4:2:0
Bit depth : 8 bits
Scan type : Progressive
Compression mode : Lossy
Bits/(Pixel*Frame) : 0.367
Stream size : 641 MiB (92%)
Writing library : XviD 61

Audio
ID : 1
Format : MPEG Audio
Format version : Version 1
Format profile : Layer 3
Mode : Joint stereo
Mode extension : MS Stereo
Codec ID : 55
Codec ID/Hint : MP3
Duration : 55mn 13s
Bit rate mode : Variable
Bit rate : 137 Kbps
Minimum bit rate : 128 Kbps
Channel(s) : 2 channels
Sampling rate : 48.0 KHz
Compression mode : Lossy
Stream size : 54.1 MiB (8%)
Alignment : Aligned on interleaves
Interleave, duration : 24 ms (0.58 video frame)
Interleave, preload duration : 134 ms
Writing library : LAME3.95
Encoding settings : -m j -V 4 -q 3 -lowpass 18 --vbr-old -b 128


SCREENSHOTS:


Download from filesonic.com

http://www.filesonic.com/file/401065...2011.part1.rar
http://www.filesonic.com/file/401068...2011.part2.rar
http://www.filesonic.com/file/401052...2011.part3.rar


Download from fileserve.com
http://www.fileserve.com/file/qcvGzp...2011.part1.rar
http://www.fileserve.com/file/ZKP5g8...2011.part2.rar
http://www.fileserve.com/file/E7vdzU...2011.part3.rar

Download from filejungle.com
http://www.filejungle.com/f/EFwe4E/S.H.2011.part1.rar
http://www.filejungle.com/f/H8KZ8p/S.H.2011.part2.rar
http://www.filejungle.com/f/RW57DK/S.H.2011.part3.rar