INFO:

Horrid Henry The Movie 2011 Rip XviD - FYA

imdb:
http://www.imdb.com/title/tt1684555/

plot:
Horrid Henry finds himself doing things
he never ever thought he'd do, and then
some.

Notes:
Ok here goes source was terrible and i mean
terrible :P :P




Who ever uploaded this piece of :shit:
needs a serious slap round the face
WTF would make u do such a thing... :blink:

so any way after working alittle bit of
magic on the video as we knew no 1 else
would be bother'd or able to :P :P
we fixed it up a little as below in screens
you will see :P :P

so here you go something else for you
recode kings to re-encode and flood
the WWW. with :P ;) :D

TAKE IT OR LEAVE IT JUS DONT BITCH
LIKE A
BIATCH

info:
Video:
ID : 0
Format : MPEG-4 Visual
Format profile : Advanced [email protected]
Format settings, BVOP : 2
Format settings, QPel : No
Format settings, GMC : No warppoints
Format settings, Matrix : Default (H.263)
Codec ID : XVID
Codec ID/Hint : XviD
Duration : 1h 34mn
Bit rate : 1 486 Kbps
Width : 720 pixels
Height : 304 pixels
Display aspect ratio : 2.35:1
Frame rate : 25.000 fps
Color space : YUV
Chroma subsampling : 4:2:0
Bit depth : 8 bits
Scan type : Progressive
Compression mode : Lossy
Bits/(Pixel*Frame) : 0.272
Stream size : 999 MiB (91%)

Audio:
ID : 1
Format : MPEG Audio
Format version : Version 1
Format profile : Layer 3
Codec ID : 55
Codec ID/Hint : MP3
Duration : 1h 34mn
Bit rate mode : Constant
Bit rate : 128 Kbps
Channel(s) : 2 channels
Sampling rate : 48.0 KHz
Compression mode : Lossy
Stream size : 86.1 MiB (8%)
Alignment : Split accross interleaves
Interleave, duration : 24 ms (0.60 video frame)


SCREENSHOTS:






Download from filesonic.com

http://www.filesonic.com/file/401058...2011.part1.rar
http://www.filesonic.com/file/401065...2011.part2.rar
http://www.filesonic.com/file/401046...2011.part3.rar


Download from fileserve.com
http://www.fileserve.com/file/MbMCms...2011.part1.rar
http://www.fileserve.com/file/r7Fgsb...2011.part2.rar
http://www.fileserve.com/file/YNQe9V...2011.part3.rar

Download from filejungle.com
http://www.filejungle.com/f/PwFsVM/H.H.T.2011.part1.rar
http://www.filejungle.com/f/uPCkJc/H.H.T.2011.part2.rar
http://www.filejungle.com/f/6msCsU/H.H.T.2011.part3.rar