Horrid Henry The Movie 2011 DVDRIP XVID AC3 - SPEEDY

iNFo:
http://www.imdb.com/title/tt1684555/
Video


ID : 0
Format : MPEG-4 Visual
Format profile : Advanced [email protected]
Format settings, BVOP : 2
Format settings, QPel : No
Format settings, GMC : No warppoints
Format settings, Matrix : Default (H.263)
Codec ID : XVID
Codec ID/Hint : XviD
Duration : 1h 29mn
Bit rate : 1 805 Kbps
Width : 720 pixels
Height : 512 pixels
Display aspect ratio : 1.406
Frame rate : 25.000 fps
Color space : YUV
Chroma subsampling : 4:2:0
Bit depth : 8 bits
Scan type : Progressive
Compression mode : Lossy
Bits/(Pixel*Frame) : 0.196
Stream size : 1.12 GiB (82%)







Audio

ID : 1
Format : AC-3
Format/Info : Audio Coding 3
Mode extension : CM (complete main)
Codec ID : 2000
Duration : 1h 29mn
Bit rate mode : Constant
Bit rate : 384 Kbps
Channel(s) : 2 channels
Channel positions : Front: L R
Sampling rate : 48.0 KHz
Bit depth : 16 bits
Compression mode : Lossy
Stream size : 244 MiB (17%)
Alignment : Aligned on interleaves
Interleave, duration : 64 ms (1.60 video frames)
Interleave, preload duration : 192 ms



1-LINK:
http://www.wupload.com/file/25740744...AC3-SPEEDY.avi
Or
http://www.filesonic.com/file/401319...AC3-SPEEDY.avi
Or
http://www.filejungle.com/f/SXjuNx/H...AC3-SPEEDY.avi
Or
http://www.fileserve.com/file/FZnR4H...AC3-SPEEDY.avi

450mb-iNTERCHANGEABLE:
http://www.filesonic.com/file/401399....avi.part1.rar
http://www.filesonic.com/file/401399....avi.part2.rar
http://www.filesonic.com/file/401399....avi.part3.rar
http://www.filesonic.com/file/401399....avi.part4.rar
Or
http://www.wupload.com/file/25752125....avi.part1.rar
http://www.wupload.com/file/25752106....avi.part2.rar
http://www.wupload.com/file/25752102....avi.part3.rar
http://www.wupload.com/file/25751975....avi.part4.rar
Or
http://www.filejungle.com/f/6wMrzw/H....avi.part1.rar
http://www.filejungle.com/f/7vtYrx/H....avi.part2.rar
http://www.filejungle.com/f/bzKdAZ/H....avi.part3.rar
http://www.filejungle.com/f/xFgewk/H....avi.part4.rar
Or
http://www.fileserve.com/file/qXVwYh....avi.part1.rar
http://www.fileserve.com/file/UrBgm4....avi.part2.rar
http://www.fileserve.com/file/p4UYac....avi.part3.rar
http://www.fileserve.com/file/XRkM9j....avi.part4.rar
Please-Say-Thanks-To-Keep-The-Topic-Alive.