Aliens Vs Avatars 2011 DVDRip XviD-EMBER

iNFo:
Aliens.Vs.Avatars.2011.DVDRip.XviD-EMBER

http://www.imdb.com/title/tt1854506/

Plot
This sci-fi thriller finds the universe in a time of turmoil, as a race of malevolent aliens known as the Scythe have
become the enemy of the cosmos, transforming into any creature they can sample the DNA of. Meanwhile, six college
friends out for a camping trip find themselves the Scythe's next target, in the middle of an interstellar war that
could mean life or death for the entire human race.

Source : DVDR5 Thanks

General
Format : AVI
Format/Info : Audio Video Interleave
File size : 698 MiB
Duration : 1h 20mn
Overall bit rate : 1 215 Kbps
Writing application : VirtualDubMod 1.5.10.2 (build 2540/release)
Writing library : VirtualDubMod build 2540/release

Video
ID : 0
Format : MPEG-4 Visual
Format profile : Advanced [email protected]
Format settings, BVOP : 2
Format settings, QPel : No
Format settings, GMC : No warppoints
Format settings, Matrix : Default (H.263)
Muxing mode : Packed bitstream
Codec ID : XVID
Codec ID/Hint : XviD
Duration : 1h 20mn
Bit rate : 1 078 Kbps
Width : 624 pixels
Height : 352 pixels
Display aspect ratio : 16:9
Frame rate : 23.976 fps
Color space : YUV
Chroma subsampling : 4:2:0
Bit depth : 8 bits
Scan type : Progressive
Compression mode : Lossy
Bits/(Pixel*Frame) : 0.205
Stream size : 619 MiB (89%)
Writing library : XviD 64

Audio
ID : 1
Format : MPEG Audio
Format version : Version 1
Format profile : Layer 3
Mode : Joint stereo
Mode extension : MS Stereo
Codec ID : 55
Codec ID/Hint : MP3
Duration : 1h 20mn
Bit rate mode : Constant
Bit rate : 128 Kbps
Channel(s) : 2 channels
Sampling rate : 48.0 KHz
Compression mode : Lossy
Stream size : 73.5 MiB (11%)
Alignment : Aligned on interleaves
Interleave, duration : 42 ms (1.00 video frame)
Interleave, preload duration : 504 ms
Writing library : LAME3.98r
Encoding settings : -m j -V 4 -q 2 -lowpass 17 -b 128



1-LINK:
http://www.wupload.com/file/25733466...XviD-EMBER.rar
Or
http://www.filesonic.com/file/401265...XviD-EMBER.rar
Or
http://www.filejungle.com/f/wjt3CN/A...XviD-EMBER.rar
Or
http://www.fileserve.com/file/Nzmack...XviD-EMBER.rar
Please-Say-Thanks-To-Keep-The-Topic-Alive.