Dead Genesis 2010 BRRip XviD-OCW

iNFo:
http://www.imdb.com/title/tt1650516/

General
Complete name : Dead.Genesis.2010.BRRip.XviD-OCW.avi
Format : AVI
Format/Info : Audio Video Interleave
File size : 1.60 GiB
Duration : 1h 29mn
Overall bit rate : 2 546 Kbps
Writing library : MPlayer

Video
ID : 0
Format : MPEG-4 Visual
Format profile : Advanced [email protected]
Format settings, BVOP : 2
Format settings, QPel : No
Format settings, GMC : No warppoints
Format settings, Matrix : Default (H.263)
Codec ID : XVID
Codec ID/Hint : XviD
Duration : 1h 29mn
Bit rate : 2 278 Kbps
Width : 640 pixels
Height : 352 pixels
Display aspect ratio : 16:9
Frame rate : 23.976 fps
Color space : YUV
Chroma subsampling : 4:2:0
Bit depth : 8 bits
Scan type : Progressive
Compression mode : Lossy
Bits/(Pixel*Frame) : 0.422
Stream size : 1.43 GiB (89%)
Writing library : XviD 1.1.2 (UTC 2006-11-01)

Audio
ID : 1
Format : MPEG Audio
Format version : Version 1
Format profile : Layer 3
Mode : Joint stereo
Codec ID : 55
Codec ID/Hint : MP3
Duration : 1h 29mn
Bit rate mode : Constant
Bit rate : 256 Kbps
Channel(s) : 2 channels
Sampling rate : 44.1 KHz
Compression mode : Lossy
Delay relative to video : 42ms
Stream size : 164 MiB (10%)
Alignment : Aligned on interleaves
Interleave, duration : 26 ms (0.63 video frame)
Interleave, preload duration : 809 ms
Writing library : LAME3.98.2UUUUUUU2]


1-LINK:
http://www.filesonic.com/file/400979...p.XviD-OCW.avi
Or
http://www.wupload.com/file/25694738...p.XviD-OCW.avi
Or
http://www.filesonic.com/file/400988...p.XviD-OCW.rar
Or
http://www.filejungle.com/f/jyx3pA/D...p.XviD-OCW.rar
Or
http://www.wupload.com/file/25696880...p.XviD-OCW.rar
Or
http://www.fileserve.com/file/XTFbJK...p.XviD-OCW.rar

450mb-iNTERCHANGEABLE:
http://www.filejungle.com/f/NvsK4w/D....avi.part1.rar
http://www.filejungle.com/f/2EYhdm/D....avi.part2.rar
http://www.filejungle.com/f/jYAp4P/D....avi.part3.rar
http://www.filejungle.com/f/wzGrDA/D....avi.part4.rar
Or
http://www.filesonic.com/file/400988....avi.part1.rar
http://www.filesonic.com/file/400988....avi.part2.rar
http://www.filesonic.com/file/400988....avi.part3.rar
http://www.filesonic.com/file/400988....avi.part4.rar
Or
http://www.wupload.com/file/25696716....avi.part1.rar
http://www.wupload.com/file/25696667....avi.part2.rar
http://www.wupload.com/file/25696716....avi.part3.rar
http://www.wupload.com/file/25696702....avi.part4.rar
Or
http://www.fileserve.com/file/GtawTV....avi.part1.rar
http://www.fileserve.com/file/s7ZQeT....avi.part2.rar
http://www.fileserve.com/file/WwP4uV....avi.part3.rar
http://www.fileserve.com/file/VDJKue....avi.part4.rar
Please-Say-Thanks-To-Keep-The-Topic-Alive.