The Twilight Saga Breaking Dawn Part 1 2011 TS - REMIS

iNFo:
http://www.imdb.com/title/tt1324999/

The Twilight Saga Breaking Dawn Part 1 2011 TS REMIS.avi

Format : AVI
Format/Info : Audio Video Interleave
Format profile : OpenDML
File size : 1.11 GiB
Duration : 1h 46mn
Overall bit rate : 1 486 Kbps
Writing application : Lavf53.17.0

Video
ID : 0
Format : MPEG-4 Visual
Format profile : [email protected]
Format settings, BVOP : No
Format settings, QPel : No
Format settings, GMC : No warppoints
Format settings, Matrix : Default (H.263)
Codec ID : FMP4
Duration : 1h 46mn
Bit rate : 1 345 Kbps
Width : 720 pixels
Height : 304 pixels
Display aspect ratio : 2.35
Frame rate : 24.000 fps
Resolution : 24 bits
Colorimetry : 4:2:0
Scan type : Progressive
Bits/(Pixel*Frame) : 0.256
Stream size : 1.00 GiB (91%)
Writing library : Lavc53.22.0

Audio
ID : 1
Format : AC-3
Format/Info : Audio Coding 3
Codec ID : 2000
Duration : 1h 46mn
Bit rate mode : Constant
Bit rate : 128 Kbps
Channel(s) : 2 channels
Channel positions : L R
Sampling rate : 44.1 KHz
Resolution : 16 bits
Stream size : 97.9 MiB (9%)
Alignment : Aligned on interleaves
Interleave, duration : 35 ms (0.84 video frame)
Source : MiSTERE



1-LINK:
http://www.wupload.com/file/25594399...1_TS_REMIS.rar
Or
http://www.filesonic.com/file/400582...1_TS_REMIS.rar
Or
http://www.filejungle.com/f/4ZCJ3a/T...1_TS_REMIS.rar
Or
http://www.fileserve.com/file/Ed3vPM...1_TS_REMIS.rar

450mb-iNTERCHANGEABLE:
http://www.wupload.com/file/25594332....avi.part1.rar
http://www.wupload.com/file/25594335....avi.part2.rar
http://www.wupload.com/file/25594303....avi.part3.rar
Or
http://www.filesonic.com/file/400581....avi.part1.rar
http://www.filesonic.com/file/400581....avi.part2.rar
http://www.filesonic.com/file/400581....avi.part3.rar
Or
http://www.filejungle.com/f/RcpTQ3/T....avi.part1.rar
http://www.filejungle.com/f/j5xc7W/T....avi.part2.rar
http://www.filejungle.com/f/s2UD6T/T....avi.part3.rar
Or
http://www.fileserve.com/file/v9bfjp....avi.part1.rar
http://www.fileserve.com/file/G6u9nF....avi.part2.rar
http://www.fileserve.com/file/H99MZJ....avi.part3.rar
Please-Say-Thanks-To-Keep-The-Topic-Alive.