IMDBLINK

http://www.imdb.com/title/tt1448755/

STORYLINE

Based on a true story, Killer Elite pits two of the worlds' most elite operatives - Danny, an ex-special ops agent (Jason Statham) and Hunter, his longtime mentor (Robert De Niro) - against the cunning leader of a secret military society ('Clive Owen' ). Covering the globe from Australia to Paris, London and the Middle East, Danny and Hunter are plunged into
INFORMATION

Killer.Elite.2011.V2.HDrip.XviD-nCODE
Format : AVI
Format/Info : Audio Video Interleave
File size : 702 MiB
Duration : 1h 56mn
Overall bit rate : 842 Kbps
Writing application : Nandub v1.0rc2
Writing library : Nandub build 1853/release
Video
ID : 0
Format : MPEG-4 Visual
Format profile : Advanced [email protected]
Format settings, BVOP : 2
Format settings, QPel : No
Format settings, GMC : No warppoints
Format settings, Matrix : Default (H.263)
Codec ID : XVID
Codec ID/Hint : XviD
Duration : 1h 56mn
Bit rate : 721 Kbps
Width : 640 pixels
Height : 272 pixels
Display aspect ratio : 2.35:1
Frame rate : 23.976 fps
Color space : YUV
Chroma subsampling : 4:2:0
Bit depth : 8 bits
Scan type : Progressive
Compression mode : Lossy
Bits/(Pixel*Frame) : 0.173
Stream size : 601 MiB (86%)
Writing library : XviD 1.2.1 (UTC 2008-12-04)
Audio
ID : 1
Format : MPEG Audio
Format version : Version 1
Format profile : Layer 3
Mode : Joint stereo
Codec ID : 55
Codec ID/Hint : MP3
Duration : 1h 56mn
Bit rate mode : Constant
Bit rate : 112 Kbps
Channel(s) : 2 channels
Sampling rate : 44.1 KHz
Compression mode : Lossy
Stream size : 93.3 MiB (13%)
Alignment : Split accross interleaves
Interleave, duration : 42 ms (1.00 video frame)
Interleave, preload duration : 500 ms
Writing library : LAME3.98r
Encoding settings : -m j -V 4 -q 2 -lowpass 15.6 -b 112
I would have liked to have blurred the logo myself but
i just didnt have the time, my favourite blur filter takes a while..lol.
so i used CM8 release who had already blurred the KORSUBs(thanks mate)
the framerate was 29.970 fps now its 23.976fps.
ive kept the proper aspect ratio & NO picture has been cropped.
used a couple denoisers & slightly sharpened.
audio is nice loud, clear and insync.
This should be standalone compatible,
hope you njoy!!
plz leave a comment for myself & the other guys...thanx!
SCREENS









ALL MY UPLOADS ARE 100% WORKING AND LEGIT, NO FAKE
YOU CAN USE DIFFERENT DOWNLOAD SERVERS, ALL FILES ARE THE SAME! LINKS ARE INTERCHANGABLE !

SUPPORT ME:
- Please SAY THANKS if you like my post. It'll only take 2 seconds and I'll know you are a nice person.
It will make your post count increase too!!
-If any link is dead please let me know. I'll fix it ASAP

DOWNLOAD

http://www.filesonic.com/file/399517...XviD-nCODE.avi




Download From Fileserve.com

http://www.fileserve.com/file/uJBBb7...XviD-nCODE.avi




Download From Wupload.com

http://www.wupload.com/file/25407526...XviD-nCODE.avi




Download From Filejungle.com

http://www.filejungle.com/f/KvN8Jd/K...XviD-nCODE.avi