IMDBLINK

http://www.imdb.com/title/tt1690470/

STORYLINE

The Pokemon Baccer World Cup is the most anticipated event of the year, and as hundreds
flock to Crown City to watch the exciting competition unfold, Ash, Pikachu, and their
friends encounter a mysterious new Pokemon they have never seen before.
INFORMATION

General
Complete name : Pokemon-Zoroark.Master of Illusions.2011.DVDRip.XVID.AC3.HQ.Hive-CM8.avi
Format : AVI
Format/Info : Audio Video Interleave
File size : 1.22 GiB
Duration : 1h 35mn
Overall bit rate : 1 834 Kbps
Writing application : Nandub v1.0rc2
Writing library : Nandub build 1853/release
Video
ID : 0
Format : MPEG-4 Visual
Format profile : Advanced [email protected]
Format settings, BVOP : 1
Format settings, QPel : Yes
Format settings, GMC : No warppoints
Format settings, Matrix : Default (H.263)
Muxing mode : Packed bitstream
Codec ID : XVID
Codec ID/Hint : XviD
Duration : 1h 35mn
Bit rate : 1 600 Kbps
Width : 720 pixels
Height : 400 pixels
Display aspect ratio : 16:9
Frame rate : 25.000 fps
Color space : YUV
Chroma subsampling : 4:2:0
Bit depth : 8 bits
Scan type : Progressive
Compression mode : Lossy
Bits/(Pixel*Frame) : 0.222
Stream size : 1.07 GiB (87%)
Writing library : XviD 1.2.1 (UTC 2008-12-04)
Audio
ID : 1
Format : AC-3
Format/Info : Audio Coding 3
Mode extension : CM (complete main)
Codec ID : 2000
Duration : 1h 35mn
Bit rate mode : Constant
Bit rate : 224 Kbps
Channel(s) : 2 channels
Channel positions : Front: L R
Sampling rate : 48.0 KHz
Bit depth : 16 bits
Compression mode : Lossy
Stream size : 153 MiB (12%)
Alignment : Split accross interleaves
Interleave, duration : 40 ms (1.00 video frame)
Interleave, preload duration : 500 ms
SCREENS






ALL MY UPLOADS ARE 100% WORKING AND LEGIT, NO FAKE
YOU CAN USE DIFFERENT DOWNLOAD SERVERS, ALL FILES ARE THE SAME! LINKS ARE INTERCHANGABLE !

SUPPORT ME:
- Please SAY THANKS if you like my post. It'll only take 2 seconds and I'll know you are a nice person.
It will make your post count increase too!!
-If any link is dead please let me know. I'll fix it ASAP

DOWNLOAD

http://www.filesonic.com/file/399463...ons-SHeRiF.avi




Download From Fileserve.com

http://www.fileserve.com/file/65AxmJ...ons-SHeRiF.avi




Download From Wupload.com

http://www.wupload.com/file/25406528...ons-SHeRiF.avi




Download From Filejungle.com

http://www.filejungle.com/f/U9YVfk/c...ons-SHeRiF.avi