50/50 2011 DVDScr XVID AC3 HQ Hive-CM8

iNFo:
http://www.imdb.com/title/tt1306980/
General
Complete name : 50.50.2011.DVDScr.XVID.AC3.HQ.Hive-CM8.avi
Format : AVI
Format/Info : Audio Video Interleave
File size : 1.37 GiB
Duration : 1h 39mn
Overall bit rate : 1 967 Kbps
Writing application : Nandub v1.0rc2
Writing library : Nandub build 1853/release

Video
ID : 0
Format : MPEG-4 Visual
Format profile : Advanced [email protected]
Format settings, BVOP : 2
Format settings, QPel : Yes
Format settings, GMC : No warppoints
Format settings, Matrix : Default (H.263)
Muxing mode : Packed bitstream
Codec ID : XVID
Codec ID/Hint : XviD
Duration : 1h 39mn
Bit rate : 1 699 Kbps
Width : 720 pixels
Height : 400 pixels
Display aspect ratio : 16:9
Frame rate : 29.970 fps
Color space : YUV
Chroma subsampling : 4:2:0
Bit depth : 8 bits
Scan type : Progressive
Compression mode : Lossy
Bits/(Pixel*Frame) : 0.197
Stream size : 1.18 GiB (86%)
Writing library : XviD 1.2.1 (UTC 2008-12-04)

Audio
ID : 1
Format : AC-3
Format/Info : Audio Coding 3
Mode extension : CM (complete main)
Codec ID : 2000
Duration : 1h 39mn
Bit rate mode : Constant
Bit rate : 256 Kbps
Channel(s) : 2 channels
Channel positions : Front: L R
Sampling rate : 48.0 KHz
Bit depth : 16 bits
Compression mode : Lossy
Stream size : 183 MiB (13%)
Alignment : Split accross interleaves
Interleave, duration : 33 ms (1.00 video frame)
Interleave, preload duration : 500 ms


1-LINK:
http://www.filesonic.com/file/399341...Q.Hive-CM8.avi
Or
http://www.wupload.com/file/25400859...Q.Hive-CM8.avi
Or
http://www.fileserve.com/file/nTWn6w...Q.Hive-CM8.avi

450mb-iNTERCHANGEABLE:
http://www.wupload.com/file/25401390....avi.part1.rar
http://www.wupload.com/file/25401390....avi.part2.rar
http://www.wupload.com/file/25401385....avi.part3.rar
http://www.wupload.com/file/25401373....avi.part4.rar
Or
http://www.filesonic.com/file/399355....avi.part1.rar
http://www.filesonic.com/file/399355....avi.part2.rar
http://www.filesonic.com/file/399355....avi.part3.rar
http://www.filesonic.com/file/399355....avi.part4.rar
Or
http://www.fileserve.com/file/cbmXQw....avi.part1.rar
http://www.fileserve.com/file/bEf3JK....avi.part2.rar
http://www.fileserve.com/file/MVXSWC....avi.part3.rar
http://www.fileserve.com/file/HhhrcT....avi.part4.rar
Please-Say-Thanks-To-Keep-The-Topic-Alive.