November Christmas 2010 DVDRip XviD-OCW

iNFo:
November Christmas 2010

http://www.imdb.com/title/tt1713502/

November.Christmas.2010.DVDRip.XviD-OCW

General
Complete name : November.Christmas.2010.DVDRip.XviD-OCW.avi
Format : AVI
Format/Info : Audio Video Interleave
File size : 1.31 GiB
Duration : 1h 33mn
Overall bit rate : 1 994 Kbps
Writing library : MPlayer

Video
ID : 0
Format : MPEG-4 Visual
Format profile : Advanced [email protected]
Format settings, BVOP : 2
Format settings, QPel : No
Format settings, GMC : No warppoints
Format settings, Matrix : Default (H.263)
Codec ID : XVID
Codec ID/Hint : XviD
Duration : 1h 33mn
Bit rate : 1 732 Kbps
Width : 640 pixels
Height : 352 pixels
Display aspect ratio : 16:9
Frame rate : 29.970 fps
Color space : YUV
Chroma subsampling : 4:2:0
Bit depth : 8 bits
Scan type : Progressive
Compression mode : Lossy
Bits/(Pixel*Frame) : 0.257
Stream size : 1.14 GiB (87%)
Writing library : XviD 1.1.2 (UTC 2006-11-01)

Audio
ID : 1
Format : MPEG Audio
Format version : Version 1
Format profile : Layer 3
Mode : Joint stereo
Codec ID : 55
Codec ID/Hint : MP3
Duration : 1h 33mn
Bit rate mode : Constant
Bit rate : 256 Kbps
Channel(s) : 2 channels
Sampling rate : 44.1 KHz
Compression mode : Lossy
Delay relative to video : 33ms
Stream size : 172 MiB (13%)
Alignment : Split accross interleaves
Interleave, duration : 500 ms (14.98 video frames)
Interleave, preload duration : 500 ms
Writing library : LAME3.98.2



1-LINK:
http://www.filesonic.com/file/399316...p.XviD-OCW.avi
Or
http://www.wupload.com/file/25399229...p.XviD-OCW.avi
Or
http://www.fileserve.com/file/Z5DdVy...p.XviD-OCW.avi

450mb-iNTERCHANGEABLE:
http://www.filesonic.com/file/399331....avi.part1.rar
http://www.filesonic.com/file/399330....avi.part2.rar
http://www.filesonic.com/file/399330....avi.part3.rar
Or
http://www.wupload.com/file/25400230....avi.part1.rar
http://www.wupload.com/file/25400227....avi.part2.rar
http://www.wupload.com/file/25400233....avi.part3.rar
Or
http://www.fileserve.com/file/GVKDbc....avi.part1.rar
http://www.fileserve.com/file/3mFxXx....avi.part2.rar
http://www.fileserve.com/file/5tR58Y....avi.part3.rar
Please-Say-Thanks-To-Keep-The-Topic-Alive.