The Thing 2011 R5 LiNE XviD - MiSTERE

iNFo:
The Thing 2011 R5 LiNE XviD - MiSTERE

http://www.imdb.com/title/tt0905372/

Video
ID : 0
Format : MPEG-4 Visual
Format profile : Advanced [email protected]
Format settings, BVOP : 1
Format settings, QPel : No
Format settings, GMC : No warppoints
Format settings, Matrix : Default (H.263)
Codec ID : XVID
Codec ID/Hint : XviD
Duration : 1h 38mn
Bit rate : 1 515 Kbps
Width : 720 pixels
Height : 304 pixels
Display aspect ratio : 2.35:1
Frame rate : 25.000 fps
Color space : YUV
Chroma subsampling : 4:2:0
Bit depth : 8 bits
Scan type : Progressive
Compression mode : Lossy
Bits/(Pixel*Frame) : 0.277
Stream size : 1.05 GiB (92%)
Writing library : XviD 1.2.1 (UTC 2008-12-04)

Audio
ID : 1
Format : MPEG Audio
Format version : Version 1
Format profile : Layer 3
Mode : Joint stereo
Mode extension : MS Stereo
Codec ID : 55
Codec ID/Hint : MP3
Duration : 1h 38mn
Bit rate mode : Constant
Bit rate : 128 Kbps
Channel(s) : 2 channels
Sampling rate : 44.1 KHz
Compression mode : Lossy
Stream size : 90.5 MiB (8%)
Alignment : Split accross interleaves
Interleave, duration : 40 ms (1.00 video frame)


Not much to say here,
video is nice, audio is nice
nothing missing, BUT
no subs for foreign language
so enjoy or wait for retail


1-LINK:
http://www.filesonic.com/file/399295...iD-MiSTERE.avi
Or
http://www.wupload.com/file/25397996...iD-MiSTERE.avi
Or
http://www.filesonic.com/file/399318...iD-MiSTERE.rar
Or
http://www.fileserve.com/file/uqk5AV...iD-MiSTERE.rar

450mb-iNTERCHANGEABLE:
http://www.filesonic.com/file/399317....avi.part1.rar
http://www.filesonic.com/file/399317....avi.part2.rar
http://www.filesonic.com/file/399317....avi.part3.rar
Or
http://www.wupload.com/file/25399285....avi.part1.rar
http://www.wupload.com/file/25399243....avi.part2.rar
http://www.wupload.com/file/25399188....avi.part3.rar
Or
http://www.fileserve.com/file/mzGrHD....avi.part1.rar
http://www.fileserve.com/file/htanXW....avi.part2.rar
http://www.fileserve.com/file/bPb6Dr....avi.part3.rar
Please-Say-Thanks-To-Keep-The-Topic-Alive.