Blackthorn (2011) 720p BRRip XviD-BBnRG



iMDB :
http://www.imdb.com/title/tt1629705/

Synopsis:
In Bolivia, Butch Cassidy (now calling himself James Blackthorne) pines for one last sight of home, an adventure that aligns him with a young robber and makes the duo a target for gangs and lawmen alike.
- My Upload.
- Working 100%.
- No Password.
- Interchangeable Links.
- 10% Recovery Added.



Fileserve :
http://www.fileserve.com/file/dVkDv9...BnRG.part1.rar
http://www.fileserve.com/file/8MMTjD...BnRG.part2.rar
http://www.fileserve.com/file/sr5EPj...BnRG.part3.rar

Filejungle :
http://www.filejungle.com/f/UbTx8g/B...BnRG.part1.rar
http://www.filejungle.com/f/QRgtQy/B...BnRG.part2.rar
http://www.filejungle.com/f/qqssdH/B...BnRG.part3.rar

Filesonic :
http://www.filesonic.com/file/399011...BnRG.part1.rar
http://www.filesonic.com/file/399011...BnRG.part2.rar
http://www.filesonic.com/file/399016...BnRG.part3.rar

Crocko :
http://www.crocko.com/332705F88A544B...BnRG.part1.rar
http://www.crocko.com/2FCD9D74765649...BnRG.part2.rar
http://www.crocko.com/1CC82AD2D6114A...BnRG.part3.rar

PLEASE REPLY IF YOU LIKE MY POST!

SCREENSHOT :


NFO :
General
Complete name : Blackthorn.2011.720p.BRRip.XviD-BBnRG.avi
Format : AVI
Format/Info : Audio Video Interleave
File size : 1.60 GiB
Duration : 1h 42mn
Overall bit rate : 2 242 Kbps

Video
ID : 0
Format : MPEG-4 Visual
Format profile : Advanced [email protected]
Format settings, BVOP : 2
Format settings, QPel : No
Format settings, GMC : No warppoints
Format settings, Matrix : Default (H.263)
Codec ID : XVID
Codec ID/Hint : XviD
Duration : 1h 42mn
Bit rate : 1 850 Kbps
Width : 1 280 pixels
Height : 544 pixels
Display aspect ratio : 2.35:1
Frame rate : 24.000 fps
Color space : YUV
Chroma subsampling : 4:2:0
Bit depth : 8 bits
Scan type : Progressive
Compression mode : Lossy
Bits/(Pixel*Frame) : 0.111
Stream size : 1.32 GiB (83%)
Writing library : XviD 1.2.1 (UTC 2008-12-04)

Audio
ID : 1
Format : AC-3
Format/Info : Audio Coding 3
Mode extension : CM (complete main)
Codec ID : 2000
Duration : 1h 42mn
Bit rate mode : Constant
Bit rate : 384 Kbps
Channel(s) : 6 channels
Channel positions : Front: L C R, Side: L R, LFE
Sampling rate : 48.0 KHz
Bit depth : 16 bits
Compression mode : Lossy
Stream size : 281 MiB (17%)
Alignment : Aligned on interleaves
Interleave, duration : 64 ms (1.54 video frames)
Interleave, preload duration : 192 ms
Title : Blackthorn (2011) 720p BRRip XviD - [2] English