Cowboys.And.Aliens.2011.EXTENDED.BRRip.720p.x264.Feel-Free



iMDB :
http://www.imdb.com/title/tt0409847/

Synopsis:
A spaceship arrives in Arizona, 1873, to take over the Earth, starting with the Wild West region. A posse of cowboys are all that stand in their way.
- My Upload.
- Working 100%.
- No Password.
- Interchangeable Links.
- 10% Recovery Added.



Fileserve :
http://www.fileserve.com/file/tWTb3v...Free.part1.rar
http://www.fileserve.com/file/b2tqga...Free.part2.rar
http://www.fileserve.com/file/Unczhj...Free.part3.rar
http://www.fileserve.com/file/n85a98...Free.part4.rar
http://www.fileserve.com/file/P3RGpd...Free.part5.rar
http://www.fileserve.com/file/yYxS7v...Free.part6.rar

Filejungle :
http://www.filejungle.com/f/mNxDn2/C...Free.part1.rar
http://www.filejungle.com/f/qxMUmX/C...Free.part2.rar
http://www.filejungle.com/f/nbeG5S/C...Free.part3.rar
http://www.filejungle.com/f/UeRKqQ/C...Free.part4.rar
http://www.filejungle.com/f/CChPBE/C...Free.part5.rar
http://www.filejungle.com/f/NdYw3S/C...Free.part6.rar

Filesonic :
http://www.filesonic.com/file/398563...Free.part1.rar
http://www.filesonic.com/file/398564...Free.part2.rar
http://www.filesonic.com/file/398564...Free.part3.rar
http://www.filesonic.com/file/398564...Free.part4.rar
http://www.filesonic.com/file/398570...Free.part5.rar
http://www.filesonic.com/file/398570...Free.part6.rar

Crocko :
http://www.crocko.com/E857C4CC25994B...Free.part1.rar
http://www.crocko.com/9D3C577EC26F4B...Free.part2.rar
http://www.crocko.com/7C9471DF742843...Free.part3.rar
http://www.crocko.com/DBE26D6CE81E4F...Free.part4.rar
http://www.crocko.com/120189D0B1B04E...Free.part5.rar
http://www.crocko.com/D082CA26FFB342...Free.part6.rar

PLEASE REPLY IF YOU LIKE MY POST!

SCREENSHOT :


NFO :
Format : MPEG-4
Format profile : Base Media
Codec ID : isom
File size : 3.25 GiB
Duration : 2h 15mn
Overall bit rate : 3 444 Kbps

Video
ID : 1
Format : AVC
Format/Info : Advanced Video Codec
Format profile : [email protected]
Format settings, CABAC : Yes
Format settings, ReFrames : 3 frames
Codec ID : avc1
Codec ID/Info : Advanced Video Coding
Duration : 2h 15mn
Bit rate mode : Variable
Bit rate : 3 000 Kbps
Maximum bit rate : 34.2 Mbps
Width : 1 280 pixels
Height : 536 pixels
Display aspect ratio : 2.35:1
Frame rate mode : Constant
Frame rate : 23.976 fps
Color space : YUV
Chroma subsampling : 4:2:0
Bit depth : 8 bits
Scan type : Progressive
Bits/(Pixel*Frame) : 0.182
Stream size : 2.83 GiB (87%)
Writing library : x264

Audio
ID : 2
Format : AAC
Format/Info : Advanced Audio Codec
Format version : Version 4
Format profile : LC
Format settings, SBR : No
Codec ID : 40
Duration : 2h 15mn
Bit rate mode : Variable
Bit rate : 443 Kbps
Maximum bit rate : 528 Kbps
Channel(s) : 6 channels
Channel positions : Front: L C R, Side: L R, LFE
Sampling rate : 48.0 KHz
Stream size : 428 MiB (13%)