Rufus.Hound-Being.Rude.2011.DVDRiP.XviD-VISUALiSE



iMDB :
http://www.amazon.co.uk/Rufus-Hound-.../dp/B005EQKJLA

Synopsis:
TV s Rufus Hound is a comedian presenter actor and the owner of a very fine moustache. You already know him as the star of Celebrity Juice, Let s Dance For Comic Relief (dressed as Cheryl Cole), Argumental, and of his own CBBC sitcom, Hounded. Now, in this brilliant debut DVD, Rufus goes back to his stand-up roots in a stunning live show, recorded at London s legendary 100 Club
- My Upload.
- Working 100%.
- No Password.
- Interchangeable Links.
- 10% Recovery Added.



Fileserve :
http://www.fileserve.com/file/VQKkcH...-VISUALiSE.rar

Filejungle :
http://www.filejungle.com/f/xenDsR/R...-VISUALiSE.rar

Filesonic :
http://www.filesonic.com/file/397642...-VISUALiSE.rar

Crocko :
http://www.crocko.com/10E924D8DF6B48...-VISUALiSE.rar

PLEASE REPLY IF YOU LIKE MY POST!

SCREENSHOT :


NFO :
General
Complete name : Rufus.Hound-Being.Rude.2011.DVDRiP.XviD-VISUALiSE.avi
Format : AVI
Format/Info : Audio Video Interleave
File size : 824 MiB
Duration : 1h 10mn
Overall bit rate : 1 637 Kbps

Video
ID : 0
Format : MPEG-4 Visual
Format profile : Advanced [email protected]
Format settings, BVOP : 2
Format settings, QPel : No
Format settings, GMC : No warppoints
Format settings, Matrix : Default (H.263)
Codec ID : XVID
Codec ID/Hint : XviD
Duration : 1h 10mn
Bit rate : 1 498 Kbps
Width : 716 pixels
Height : 336 pixels
Display aspect ratio : 2.526
Frame rate : 25.000 fps
Color space : YUV
Chroma subsampling : 4:2:0
Bit depth : 8 bits
Scan type : Progressive
Compression mode : Lossy
Bits/(Pixel*Frame) : 0.249
Stream size : 754 MiB (92%)
Writing library : XviD 63

Audio
ID : 1
Format : AC-3
Format/Info : Audio Coding 3
Mode extension : CM (complete main)
Codec ID : 2000
Duration : 1h 10mn
Bit rate mode : Constant
Bit rate : 128 Kbps
Channel(s) : 2 channels
Channel positions : Front: L R
Sampling rate : 48.0 KHz
Bit depth : 16 bits
Compression mode : Lossy
Stream size : 64.4 MiB (8%)
Alignment : Aligned on interleaves
Interleave, duration : 32 ms (0.80 video frame)