Mr.And.Mrs.Single.2011.DVDRip.XviD-CoWRY



iMDB :
http://www.imdb.com/title/tt1887955/

Synopsis:
In the romantic-comedy “Mr. and Mrs. Single,” the movie tackles the Chinese social phenomenon of secret marriages for young couples looking for better jobs and higher income. A young man (Eason Chan) with high mortgage payments to fulfill takes the job of a personal-assistant to a female CEO (Rene Liu) under the condition that he is still single.
- My Upload.
- Working 100%.
- No Password.
- Interchangeable Links.
- 10% Recovery Added.



- Language: Mandarin
- Subs: English

Fileserve :
http://www.fileserve.com/file/gGaHgH...y-mams.avi.rar
http://www.fileserve.com/file/AvRFE4...-mams-subs.rar

Filejungle :
http://www.filejungle.com/f/B7Xtzp/cowry-mams.avi.rar
http://www.filejungle.com/f/qMcQ7f/cowry-mams-subs.rar

Filesonic :
http://www.filesonic.com/file/397619...y-mams.avi.rar
http://www.filesonic.com/file/397624...-mams-subs.rar

Crocko :
http://www.crocko.com/D28DA1DAEC3747...y-mams.avi.rar
http://www.crocko.com/FB1293DCC05B48...-mams-subs.rar

PLEASE REPLY IF YOU LIKE MY POST!

SCREENSHOT :


NFO :
General
Complete name : cowry-mams.avi
Format : AVI
Format/Info : Audio Video Interleave
File size : 697 MiB
Duration : 1h 41mn
Overall bit rate : 962 Kbps
Writing application : VirtualDubMod 1.5.10.2 (build 2540/release)
Writing library : VirtualDubMod build 2540/release

Video
ID : 0
Format : MPEG-4 Visual
Format profile : [email protected]
Format settings, BVOP : 2
Format settings, QPel : No
Format settings, GMC : No warppoints
Format settings, Matrix : Default (H.263)
Muxing mode : Packed bitstream
Codec ID : XVID
Codec ID/Hint : XviD
Duration : 1h 41mn
Bit rate : 827 Kbps
Width : 640 pixels
Height : 272 pixels
Display aspect ratio : 2.35:1
Frame rate : 23.976 fps
Color space : YUV
Chroma subsampling : 4:2:0
Bit depth : 8 bits
Scan type : Progressive
Compression mode : Lossy
Bits/(Pixel*Frame) : 0.198
Stream size : 599 MiB (86%)
Writing library : XviD 1.0.3 (UTC 2004-12-20)

Audio
ID : 1
Format : MPEG Audio
Format version : Version 1
Format profile : Layer 3
Mode : Joint stereo
Mode extension : MS Stereo
Codec ID : 55
Codec ID/Hint : MP3
Duration : 1h 41mn
Bit rate mode : Variable
Bit rate : 128 Kbps
Channel(s) : 2 channels
Sampling rate : 48.0 KHz
Compression mode : Lossy
Stream size : 88.9 MiB (13%)
Alignment : Aligned on interleaves
Interleave, duration : 24 ms (0.58 video frame)
Interleave, preload duration : 150 ms
Writing library : LAME3.90.
Encoding settings : -m j -V 4 -q 2 -lowpass 17.6 --abr 128