IMDBLINK

http://www.imdb.com/title/tt1600195/

STORYLINE

Nathan, a teen, along with his friend, Karen finds a website that has photos of children who are missing or believed to have been abducted. They decide to age one of the photos and discover that is of Nathan as a child. He contacts the person who placed the photo to find out what's going on. The person on the other end only wants to know info about Nathan so Nathan hangs up. The person then contacts someone in Europe and shows him a photo of the one who called. He then heads for the U.S. Nathan then wonders is it true, was he abducted. He tells his "mom" who then tells him she and his "father" will tell him. But before they can, two men claiming to be cops show up wanting to talk to Nathan, and when he isn't found they pull guns and demand Nathan be given to them. His parents fight them but are killed. Nathan runs but remembers that he asked Karen to come over...
INFORMATION

Abduction.2011.HDRip.blurred.XviD-nCODE
Format : AVI
Format/Info : Audio Video Interleave
File size : 696 MiB
Duration : 1h 46mn
Overall bit rate : 911 Kbps
Writing library : VirtualDub build 32843/release
Video
ID : 0
Format : MPEG-4 Visual
Format profile : [email protected]
Format settings, BVOP : No
Format settings, QPel : No
Format settings, GMC : No warppoints
Format settings, Matrix : Default (H.263)
Codec ID : XVID
Codec ID/Hint : XviD
Duration : 1h 46mn
Bit rate : 772 Kbps
Width : 640 pixels
Height : 272 pixels
Display aspect ratio : 2.35:1
Frame rate : 29.970 fps
Color space : YUV
Chroma subsampling : 4:2:0
Bit depth : 8 bits
Scan type : Progressive
Compression mode : Lossy
Bits/(Pixel*Frame) : 0.148
Stream size : 590 MiB (85%)
Writing library : XviD 64
Audio
ID : 1
Format : MPEG Audio
Format version : Version 1
Format profile : Layer 3
Mode : Joint stereo
Mode extension : MS Stereo
Codec ID : 55
Codec ID/Hint : MP3
Duration : 1h 46mn
Bit rate mode : Constant
Bit rate : 128 Kbps
Channel(s) : 2 channels
Sampling rate : 48.0 KHz
Compression mode : Lossy
Stream size : 97.8 MiB (14%)
Alignment : Split accross interleaves
Interleave, duration : 33 ms (1.00 video frame)
Interleave, preload duration : 500 ms
Writing library : LAME3.98r
Encoding settings : -m j -V 4 -q 2 -lowpass 17 -b 128
first of all i ran the mkv through MeGUI to crop the black borders, resize, denoise
& color space. Then ran it through Virtualdub using a filter to blur ALL the KORSUBs.
a cropped version would have been soo simple & quick to do but i thought we'd loose too much picture.
i hope you'll enjoy this uncropped version!!
BTW, standalone compatible!!!
SCREENS








ALL MY UPLOADS ARE 100% WORKING AND LEGIT, NO FAKE
YOU CAN USE DIFFERENT DOWNLOAD SERVERS, ALL FILES ARE THE SAME! LINKS ARE INTERCHANGABLE !

SUPPORT ME:
- Please SAY THANKS if you like my post. It'll only take 2 seconds and I'll know you are a nice person.
It will make your post count increase too!!
-If any link is dead please let me know. I'll fix it ASAP

DOWNLOAD

http://www.filesonic.com/file/397457...XviD-nCODE.rar




Fileserve Mirrors

http://www.fileserve.com/file/g5HPmb...XviD-nCODE.rar




Wupload Mirrors

http://www.wupload.com/file/25347857...XviD-nCODE.rar




Filejungle Mirrors

http://www.filejungle.com/f/K7HNCa/A...XviD-nCODE.rar