Warrior 2011 DVDSCR MKV AC3-INF1N1TY

iNFo:
http://www.imdb.com/title/tt1291584/
Format : Matroska
Format version : Version 2
File size : 1.25 GiB
Duration : 2h 19mn
Overall bit rate : 1 275 Kbps
Writing application : HandBrake 0.9.5
Writing library : libmkv 0.6.4.1

Video
ID : 1
Format : AVC
Format/Info : Advanced Video Codec
Format profile : [email protected]
Format settings, CABAC : Yes
Format settings, ReFrames : 6 frames
Codec ID : V_MPEG4/ISO/AVC
Duration : 2h 19mn
Bit rate : 1 057 Kbps
Width : 720 pixels
Height : 304 pixels
Display aspect ratio : 2.35:1
Frame rate mode : Variable
Frame rate : 23.976 fps
Color space : YUV
Chroma subsampling : 4:2:0
Bit depth : 8 bits
Scan type : Progressive
Bits/(Pixel*Frame) : 0.201
Stream size : 1.03 GiB (83%)
Writing library : x264 core 112
Encoding settings : cabac=1 / ref=6 / deblock=1:-2:-2 / analyse=0x3:0x133 / me=umh / subme=9 / psy=1 / psy_rd=1.00:0.00 / mixed_ref=1 / me_range=24 / chroma_me=1 / trellis=2 / 8x8dct=1 / cqm=0 / deadzone=21,11 / fast_pskip=0 / chroma_qp_offset=-2 / threads=3 / sliced_threads=0 / nr=0 / decimate=1 / interlaced=0 / constrained_intra=0 / bframes=6 / b_pyramid=2 / b_adapt=2 / b_bias=0 / direct=3 / weightb=1 / open_gop=0 / weightp=2 / keyint=240 / keyint_min=23 / scenecut=40 / intra_refresh=0 / rc_lookahead=50 / rc=crf / mbtree=1 / crf=19.0 / qcomp=0.60 / qpmin=3 / qpmax=51 / qpstep=4 / ip_ratio=1.40 / aq=1:1.20
Language : English
Color primaries : BT.601-6 525, BT.1358 525, BT.1700 NTSC, SMPTE 170M
Transfer characteristics : BT.709-5, BT.1361
Matrix coefficients : BT.601-6 525, BT.1358 525, BT.1700 NTSC, SMPTE 170M

Audio
ID : 2
Format : AC-3
Format/Info : Audio Coding 3
Mode extension : CM (complete main)
Codec ID : A_AC3
Duration : 2h 19mn
Bit rate mode : Constant
Bit rate : 192 Kbps
Channel(s) : 2 channels
Channel positions : Front: L R
Sampling rate : 48.0 KHz
Bit depth : 16 bits
Compression mode : Lossy
Stream size : 192 MiB (15%)
Language : English


1-LINK:
http://www.filesonic.com/file/3973897265/Warrior.mkv
Or
http://www.wupload.com/file/2534722142/Warrior.mkv
Or
http://www.filesonic.com/file/3974011944/Warrior.rar
Or
http://www.fileserve.com/file/Qa8jSxW/Warrior.rar

450mb-iNTERCHANGEABLE:
http://www.filesonic.com/file/397400....mkv.part1.rar
http://www.filesonic.com/file/397400....mkv.part2.rar
http://www.filesonic.com/file/397400....mkv.part3.rar
Or
http://www.wupload.com/file/25347382....mkv.part1.rar
http://www.wupload.com/file/25347382....mkv.part2.rar
http://www.wupload.com/file/25347384....mkv.part3.rar
Or
http://www.fileserve.com/file/sV7CeU....mkv.part1.rar
http://www.fileserve.com/file/j24YTH....mkv.part2.rar
http://www.fileserve.com/file/Hf9Bg9....mkv.part3.rar
Please-Say-Thanks-To-Keep-The-Topic-Alive.