A Very Harold And Kumar 3D Christmas 2011 TS XViD-DTRG

iNFo:
http://www.imdb.com/title/tt1268799/
Format : AVI
Format/Info : Audio Video Interleave
File size : 1.21 GiB
Duration : 1h 20mn
Overall bit rate : 2 137 Kbps
Writing library : VirtualDub build 32842/release

Video
ID : 0
Format : MPEG-4 Visual
Format profile : Advanced [email protected]
Format settings, BVOP : 2
Format settings, QPel : No
Format settings, GMC : No warppoints
Format settings, Matrix : Default (H.263)
Muxing mode : Packed bitstream
Codec ID : XVID
Codec ID/Hint : XviD
Duration : 1h 20mn
Bit rate : 2 000 Kbps
Width : 642 pixels
Height : 272 pixels
Display aspect ratio : 2.35:1
Frame rate : 24.000 fps
Color space : YUV
Chroma subsampling : 4:2:0
Bit depth : 8 bits
Scan type : Progressive
Compression mode : Lossy
Bits/(Pixel*Frame) : 0.477
Stream size : 1.13 GiB (94%)
Writing library : XviD 64

Audio
ID : 1
Format : MPEG Audio
Format version : Version 1
Format profile : Layer 3
Mode : Joint stereo
Mode extension : MS Stereo
Codec ID : 55
Codec ID/Hint : MP3
Duration : 1h 20mn
Bit rate mode : Constant
Bit rate : 128 Kbps
Channel(s) : 2 channels
Sampling rate : 44.1 KHz
Compression mode : Lossy
Stream size : 73.9 MiB (6%)
Alignment : Split accross interleaves
Interleave, duration : 42 ms (1.00 video frame)
Interleave, preload duration : 500 ms
Writing library : LAME3.98r
Encoding settings : -m j -V 4 -q 2 -lowpass 17 -b 128


1-LINK:
http://www.filesonic.com/file/396880...stmas_2011.rar
Or
http://www.wupload.com/file/25333106...stmas_2011.rar
Or
http://www.fileserve.com/file/aSkNbF...stmas_2011.rar

450mb-iNTERCHANGEABLE:
http://www.wupload.com/file/25333103....avi.part1.rar
http://www.wupload.com/file/25333106....avi.part2.rar
http://www.wupload.com/file/25333102....avi.part3.rar
Or
http://www.filesonic.com/file/396885....avi.part1.rar
http://www.filesonic.com/file/396885....avi.part2.rar
http://www.filesonic.com/file/396885....avi.part3.rar
Or
http://www.fileserve.com/file/g9fHjr....avi.part1.rar
http://www.fileserve.com/file/3VWPDe....avi.part2.rar
http://www.fileserve.com/file/zvt82H....avi.part3.rar
Please-Say-Thanks-To-Keep-The-Topic-Alive.