Blackthorn 2011 BRRip XviD AC3 - Feel-Free

iNFo:
Genre:Western
Language:English
IMDb:http://www.imdb.com/title/tt1629705/
Source:720p.BluRay.x264.DTS.HDChina Thanks!

Format : AVI
Format/Info : Audio Video Interleave
File size : 1.13 GiB
Duration : 1h 42mn
Overall bit rate : 1 586 Kbps

Video
ID : 0
Format : MPEG-4 Visual
Format profile : Advanced [email protected]
Format settings, BVOP : Yes
Format settings, QPel : No
Format settings, GMC : No warppoints
Format settings, Matrix : Default (H.263)
Codec ID : XVID
Codec ID/Hint : XviD
Duration : 1h 42mn
Bit rate : 1 128 Kbps
Width : 640 pixels
Height : 272 pixels
Display aspect ratio : 2.35:1
Frame rate : 24.000 fps
Color space : YUV
Chroma subsampling : 4:2:0
Bit depth : 8 bits
Scan type : Progressive
Bits/(Pixel*Frame) : 0.270
Stream size : 826 MiB (71%)
Writing library : XviD 1.2.1 (UTC 2008-12-04)

Audio
ID : 1
Format : AC-3
Format/Info : Audio Coding 3
Mode extension : CM (complete main)
Codec ID : 2000
Duration : 1h 42mn
Bit rate mode : Constant
Bit rate : 448 Kbps
Channel(s) : 6 channels
Channel positions : Front: L C R, Side: L R, LFE
Sampling rate : 48.0 KHz
Bit depth : 16 bits
Stream size : 328 MiB (28%)
Alignment : Aligned on interleaves
Interleave, duration : 42 ms (1.00 video frame)
Interleave, preload duration : 512 ms


1-LINK:
http://www.filesonic.com/file/396472....Feel-Free.rar
Or
http://www.wupload.com/file/25327529....Feel-Free.rar
Or
http://www.fileserve.com/file/7srrqP....Feel-Free.rar

450mb-iNTERCHANGEABLE:
http://www.filesonic.com/file/396472....avi.part1.rar
http://www.filesonic.com/file/396471....avi.part2.rar
http://www.filesonic.com/file/396471....avi.part3.rar
Or
http://www.wupload.com/file/25326966....avi.part1.rar
http://www.wupload.com/file/25326930....avi.part2.rar
http://www.wupload.com/file/25326915....avi.part3.rar
Or
http://www.fileserve.com/file/5YFSuC....avi.part1.rar
http://www.fileserve.com/file/jSsURJ....avi.part2.rar
http://www.fileserve.com/file/gdwVjW....avi.part3.rar
Please-Say-Thanks-To-Keep-The-Topic-Alive.