One.Day.2011.BRRip.720p.x264.DXVA-MXMG



iMDB :
http://www.imdb.com/title/tt1563738/

Synopsis:
After spending the night together on the night of their college graduation Dexter and Em are shown each year on the same date to see where they are in their lives. They are sometimes together, sometimes not, on that day.
- My Upload.
- Working 100%.
- No Password.
- Interchangeable Links.
- 10% Recovery Added.



Fileserve :
http://www.fileserve.com/file/fDxUWvr
http://www.fileserve.com/file/3VNZ2Gs
http://www.fileserve.com/file/K2uPZSJ
http://www.fileserve.com/file/2Dj4D8G

Filejungle :
http://www.filejungle.com/f/e3AvJw
http://www.filejungle.com/f/qud66u
http://www.filejungle.com/f/A4xjBx
http://www.filejungle.com/f/qj8Kpy

Filesonic :
http://www.filesonic.com/file/3960131145
http://www.filesonic.com/file/3960128375
http://www.filesonic.com/file/3960201235
http://www.filesonic.com/file/3960310575

Crocko :
http://www.crocko.com/307EEE11447148098B115E6D584399C3
http://www.crocko.com/558F19BA8B544A0CAAD16BBA6EFA6069
http://www.crocko.com/2D20B1CDB7DB4389BDBF51BA7C0B1669
http://www.crocko.com/FF12E6FAA79C4C9A871E6754E94EF781

PLEASE REPLY IF YOU LIKE MY POST!

SCREENSHOT :


NFO :
General
Unique ID : 175443450514277817210383874976231321519 (0x83FD2DF301311F82A886F3881E15EFAF)
Complete name : One.Day.mkv
Format : Matroska
File size : 2.59 GiB
Duration : 1h 47mn
Overall bit rate : 3 449 Kbps
Encoded date : UTC 2011-11-19 09:54:12
Writing application : mkvmerge v5.0.0 ('Die Wahre Liebe') built on Sep 25 2011 20:33:49
Writing library : libebml v1.2.2 + libmatroska v1.3.0

Video
ID : 2
Format : AVC
Format/Info : Advanced Video Codec
Format profile : [email protected]
Format settings, CABAC : Yes
Format settings, ReFrames : 4 frames
Muxing mode : Header stripping
Codec ID : V_MPEG4/ISO/AVC
Duration : 1h 47mn
Bit rate : 3 001 Kbps
Width : 1 280 pixels
Height : 544 pixels
Display aspect ratio : 2.35:1
Frame rate : 23.976 fps
Color space : YUV
Chroma subsampling : 4:2:0
Bit depth : 8 bits
Scan type : Progressive
Bits/(Pixel*Frame) : 0.180
Stream size : 2.20 GiB (85%)
Writing library : x264 core 119 r2106 07efeb4
Encoding settings : cabac=1 / ref=4 / deblock=1:-1:-1 / analyse=0x3:0x113 / me=umh / subme=7 / psy=1 / psy_rd=1.00:0.00 / mixed_ref=1 / me_range=16 / chroma_me=1 / trellis=2 / 8x8dct=1 / cqm=0 / deadzone=21,11 / fast_pskip=1 / chroma_qp_offset=-2 / threads=6 / sliced_threads=0 / nr=0 / decimate=1 / interlaced=0 / bluray_compat=0 / constrained_intra=0 / bframes=3 / b_pyramid=2 / b_adapt=2 / b_bias=0 / direct=3 / weightb=1 / open_gop=0 / weightp=2 / keyint=250 / keyint_min=23 / scenecut=40 / intra_refresh=0 / rc_lookahead=40 / rc=2pass / mbtree=1 / bitrate=3001 / ratetol=1.0 / qcomp=0.60 / qpmin=10 / qpmax=51 / qpstep=4 / cplxblur=20.0 / qblur=0.5 / vbv_maxrate=50000 / vbv_bufsize=50000 / nal_hrd=none / ip_ratio=1.40 / aq=1:1.00

Audio
ID : 3
Format : AC-3
Format/Info : Audio Coding 3
Mode extension : CM (complete main)
Muxing mode : Header stripping
Codec ID : A_AC3
Duration : 1h 47mn
Bit rate mode : Constant
Bit rate : 448 Kbps
Channel(s) : 6 channels
Channel positions : Front: L C R, Side: L R, LFE
Sampling rate : 48.0 KHz
Bit depth : 16 bits
Compression mode : Lossy
Stream size : 344 MiB (13%)
Language : English

Text
ID : 1
Format : UTF-8
Codec ID : S_TEXT/UTF8
Codec ID/Info : UTF-8 Plain Text
Language : English