Born.Bad.2011.720p.Uncut.BRRip.XviD.BBnRG



iMDB :
http://www.imdb.com/title/tt1869315/

Synopsis:
Dawta says it’s the truth, but other family members remember differently. At once epic and domestic, Tucker Green’s explosive drama follows one family trying to make sense of their past.
- My Upload.
- Working 100%.
- No Password.
- Interchangeable Links.
- 10% Recovery Added.



Fileserve :
http://www.fileserve.com/file/rCFMW4....avi.part1.rar
http://www.fileserve.com/file/CkUSgM....avi.part2.rar

Filejungle :
http://www.filejungle.com/f/3g24qr/B....avi.part1.rar
http://www.filejungle.com/f/JrgED8/B....avi.part2.rar

Filesonic :
http://www.filesonic.com/file/395161....avi.part1.rar
http://www.filesonic.com/file/395164....avi.part2.rar

PLEASE REPLY IF YOU LIKE MY POST!

SCREENSHOT :


NFO :
------------------nfo--------------------------
-Another Fine Release Brought to you from -
===================================================================================================
BBBBBBBBBBBBBBBBB BBBBBBBBBBBBBBBBB RRRRRRRRRRRRRRRRR GGGGGGGGGGGGG
B::::::::::::::::B B::::::::::::::::B R::::::::::::::::R GGG::::::::::::G
B::::::BBBBBB:::::B B::::::BBBBBB:::::B R::::::RRRRRR:::::R GG:::::::::::::::G
BB:::::B B:::::BBB:::::B B:::::B RR:::::R R:::::R G:::::GGGGGGGG::::G
B::::B B:::::B B::::B B:::::Bnnnn nnnnnnnn R::::R R:::::R G:::::G GGGGGG
B::::B B:::::B B::::B B:::::Bn:::nn::::::::nn R::::R R:::::RG:::::G
B::::BBBBBB:::::B B::::BBBBBB:::::B n::::::::::::::nn R::::RRRRRR:::::R G:::::G
B:::::::::::::BB B:::::::::::::BB nn:::::::::::::::n R:::::::::::::RR G:::::G GGGGGGGGGG
B::::BBBBBB:::::B B::::BBBBBB:::::B n:::::nnnn:::::n R::::RRRRRR:::::R G:::::G G::::::::G
B::::B B:::::B B::::B B:::::B n::::n n::::n R::::R R:::::RG:::::G GGGGG::::G
B::::B B:::::B B::::B B:::::B n::::n n::::n R::::R R:::::RG:::::G G::::G
B::::B B:::::B B::::B B:::::B n::::n n::::n R::::R R:::::R G:::::G G::::G
BB:::::BBBBBB::::::BBB:::::BBBBBB::::::B n::::n n::::nRR:::::R R:::::R G:::::GGGGGGGG::::G
B:::::::::::::::::B B:::::::::::::::::B n::::n n::::nR::::::R R:::::R GG:::::::::::::::G
B::::::::::::::::B B::::::::::::::::B n::::n n::::nR::::::R R:::::R GGG::::::GGG:::G
BBBBBBBBBBBBBBBBB BBBBBBBBBBBBBBBBB nnnnnn nnnnnnRRRRRRRR RRRRRRR GGGGGG GGGG
===================================================================================================
Born Bad (2011) 720p Uncut BRRip XviD BBnRG
===================================================================================================

___ _ ___ __
| _ \___| |___ __ _ ___ ___ |_ _|_ _ / _|___
| / -_) / -_) _` (_-</ -_) | || ' \| _/ _ \
|_|_\___|_\___\__,_/__/\___| |___|_||_|_| \___/
===================================================================================================
Complete name : Born Bad (2011) 720p Uncut BRRip XviD BBnRG.avi
Format : AVI
Format/Info : Audio Video Interleave
File size : 1.46 GiB
Duration : 1h 32mn
Overall bit rate : 2 255 Kbps

Video
ID : 0
Format : MPEG-4 Visual
Format profile : Advanced [email protected]
Format settings, BVOP : 2
Format settings, QPel : No
Format settings, GMC : No warppoints
Format settings, Matrix : Default (H.263)
Codec ID : XVID
Codec ID/Hint : XviD
Duration : 1h 32mn
Bit rate : 1 863 Kbps
Width : 1 280 pixels
Height : 720 pixels
Display aspect ratio : 16:9
Frame rate : 23.976 fps
Color space : YUV
Chroma subsampling : 4:2:0
Bit depth : 8 bits
Scan type : Progressive
Compression mode : Lossy
Bits/(Pixel*Frame) : 0.084
Stream size : 1.20 GiB (83%)
Writing library : XviD 1.2.1 (UTC 2008-12-04)

Audio
ID : 1
Format : AC-3
Format/Info : Audio Coding 3
Mode extension : CM (complete main)
Codec ID : 2000
Duration : 1h 32mn
Bit rate mode : Constant
Bit rate : 384 Kbps
Channel(s) : 6 channels
Channel positions : Front: L C R, Side: L R, LFE
Sampling rate : 48.0 KHz
Bit depth : 16 bits
Compression mode : Lossy
Stream size : 254 MiB (17%)
Alignment : Aligned on interleaves
Interleave, duration : 64 ms (1.53 video frames)
Interleave, preload duration : 192 ms

___ _ ___ _ _ _
| _ \___| |___ __ _ ___ ___ | \ ___ ___ __ _ _(_)_ __| |_(_)___ _ _
| / -_) / -_) _` (_-</ -_) | |) / -_|_-</ _| '_| | '_ \ _| / _ \ ' \
|_|_\___|_\___\__,_/__/\___| |___/\___/__/\__|_| |_| .__/\__|_\___/_||_|
|_|
===================================================================================================
86 min - Drama | Thriller

Brooke is devastated that shes pulled out of her high school so her family can move to a
new town. Even worse, her stepmother is pregnant with a new addition to her dysfunctional
family. All seems lost until she becomes smitten with a charming guy (Michael Welch). He's
gorgeous, sweet, thrilling, everything her life isn't...until he reveals a menacing dark side.

IMDb Link:http://www.imdb.com/title/tt1869315/
___ _ _ _
/ __|_ _ ___ _ _ _ __ | \| |___| |_ ___ ___
| (_ | '_/ _ \ || | '_ \ | .` / _ \ _/ -_|_-<
\___|_| \___/\_,_| .__/ |_|\_\___/\__\___/__/
|_|
===================================================================================================
Encoder: FridayToker
Source(s): REFiLL (thanks)

Another fine release from BBnRG

We aim to bring the best

___ _
/ __|_ _ ___ ___| |_ ___
| (_ | '_/ -_) -_) _|_ /
\___|_| \___\___|\__/__|
===================================================================================================
NiCkkkDoN, Hive-CM8, DiVERSiTY, ViSiON, CrEwSaDe, INF1N1TY, 3LT0N, T0XiC, *THC*, TWiZTED, BBRG,
BHRG, PECKO, CRYS, SC0RN, DEFACED, AMiABLE, KiNGDOM, aAF, MOUMENTUM, UnKnOwN, FreaK, FLAWL3SS,
BDK, SMSB, ViP3R, EMBER, LKRG, LTRG, MXMG, Rx, MASSiVE, TaRiQ786, Jucified, RippeR,
EXViD, TDP, VoMiT, PRESTiGE & to all other p2p groups out there...