Blackthorn.2011.BRRip.XViD-DTRG



iMDB :
http://www.imdb.com/title/tt1629705/

Synopsis:
In Bolivia, Butch Cassidy (now calling himself James Blackthorne) pines for one last sight of home, an adventure that aligns him with a young robber and makes the duo a target for gangs and lawmen alike.
- My Upload.
- Working 100%.
- No Password.
- Interchangeable Links.
- 10% Recovery Added.



Fileserve :
http://www.fileserve.com/file/VckpRQ...DTRG.part1.rar
http://www.fileserve.com/file/XN7sPC...DTRG.part2.rar
http://www.fileserve.com/file/mBNXTW...DTRG.part3.rar

Filejungle :
http://www.filejungle.com/f/UNrmZv/B...DTRG.part1.rar
http://www.filejungle.com/f/PMQ7Pa/B...DTRG.part2.rar
http://www.filejungle.com/f/SU7mDK/B...DTRG.part3.rar

Filesonic :
http://www.filesonic.com/file/395096...DTRG.part1.rar
http://www.filesonic.com/file/395102...DTRG.part2.rar
http://www.filesonic.com/file/395100...DTRG.part3.rar

PLEASE REPLY IF YOU LIKE MY POST!

SCREENSHOT :


NFO :
Format : AVI
Format/Info : Audio Video Interleave
File size : 1.60 GiB
Duration : 1h 42mn
Overall bit rate : 2 235 Kbps
Writing application : VirtualDubMod 1.5.10.2 (build 2540/release)
Writing library : VirtualDubMod build 2540/release

Video
ID : 0
Format : MPEG-4 Visual
Format profile : Advanced [email protected]
Format settings, BVOP : 2
Format settings, QPel : No
Format settings, GMC : No warppoints
Format settings, Matrix : Default (H.263)
Muxing mode : Packed bitstream
Codec ID : XVID
Codec ID/Hint : XviD
Duration : 1h 42mn
Bit rate : 1 842 Kbps
Width : 720 pixels
Height : 304 pixels
Display aspect ratio : 2.35:1
Frame rate : 24.000 fps
Color space : YUV
Chroma subsampling : 4:2:0
Bit depth : 8 bits
Scan type : Progressive
Compression mode : Lossy
Bits/(Pixel*Frame) : 0.351
Stream size : 1.32 GiB (82%)
Writing library : XviD 64

Audio
ID : 1
Format : AC-3
Format/Info : Audio Coding 3
Mode extension : CM (complete main)
Codec ID : 2000
Duration : 1h 42mn
Bit rate mode : Constant
Bit rate : 384 Kbps
Channel(s) : 6 channels
Channel positions : Front: L C R, Side: L R, LFE
Sampling rate : 48.0 KHz
Bit depth : 16 bits
Compression mode : Lossy
Stream size : 281 MiB (17%)
Alignment : Split accross interleaves
Interleave, duration : 42 ms (1.00 video frame)
Interleave, preload duration : 500 ms