The.Gurad.2011.DVDRIP.Xvid.ac3-BHRG



iMDB :
http://www.imdb.com/title/tt1540133/

Synopsis:
An unorthodox Irish policeman with a confrontational personality is teamed up with an uptight FBI agent to investigate an international drug-smuggling ring.
- My Upload.
- Working 100%.
- No Password.
- Interchangeable Links.
- 10% Recovery Added.



Fileserve :
http://www.fileserve.com/file/GBMFVW....avi.part1.rar
http://www.fileserve.com/file/fUNbUU....avi.part2.rar
http://www.fileserve.com/file/hvgDPS....avi.part3.rar

Filejungle :
http://www.filejungle.com/f/cwgZc2/T....avi.part1.rar
http://www.filejungle.com/f/wMVCXV/T....avi.part2.rar
http://www.filejungle.com/f/u6Btbd/T....avi.part3.rar

Filesonic :
http://www.filesonic.com/file/394950....avi.part1.rar
http://www.filesonic.com/file/394953....avi.part2.rar
http://www.filesonic.com/file/394953....avi.part3.rar

PLEASE REPLY IF YOU LIKE MY POST!

SCREENSHOT :


NFO :
General
Complete name : The.Gurad.2011.DVDRIP.Xvid.ac3-BHRG.avi
Format : AVI
Format/Info : Audio Video Interleave
File size : 1.71 GiB
Duration : 1h 32mn
Overall bit rate : 2 654 Kbps

Video
ID : 0
Format : MPEG-4 Visual
Format profile : Advanced [email protected]
Format settings, BVOP : 2
Format settings, QPel : No
Format settings, GMC : No warppoints
Format settings, Matrix : Default (H.263)
Codec ID : XVID
Codec ID/Hint : XviD
Duration : 1h 32mn
Bit rate : 2 263 Kbps
Width : 720 pixels
Height : 304 pixels
Display aspect ratio : 2.35:1
Frame rate : 25.000 fps
Color space : YUV
Chroma subsampling : 4:2:0
Bit depth : 8 bits
Scan type : Progressive
Compression mode : Lossy
Bits/(Pixel*Frame) : 0.413
Stream size : 1.46 GiB (85%)
Writing library : XviD 1.2.1 (UTC 2008-12-04)

Audio
ID : 1
Format : AC-3
Format/Info : Audio Coding 3
Mode extension : CM (complete main)
Codec ID : 2000
Duration : 1h 32mn
Bit rate mode : Constant
Bit rate : 384 Kbps
Channel(s) : 6 channels
Channel positions : Front: L C R, Side: L R, LFE
Sampling rate : 48.0 KHz
Bit depth : 16 bits
Compression mode : Lossy
Stream size : 253 MiB (14%)
Alignment : Aligned on interleaves
Interleave, duration : 64 ms (1.60 video frames)
Interleave, preload duration : 192 ms
Title : VTS_01_1 T81 3_2ch 448Kbps DELAY 0ms_new