Deadheads.2011.BRRIP.XVID-MADISON



iMDB :
http://www.imdb.com/title/tt1273207/

Synopsis:
Two inexplicably coherent zombies awake amidst a zombie attack and decide to take a road trip to find the one’s lost love, unaware they are being chased by the agents of a ruthless company with it’s own agenda.
- My Upload.
- Working 100%.
- No Password.
- Interchangeable Links.
- 10% Recovery Added.



Fileserve :
http://www.fileserve.com/file/sckmkn....avi.part1.rar
http://www.fileserve.com/file/YeVU8v....avi.part2.rar

Filejungle :
http://www.filejungle.com/f/cPTKhw/D....avi.part1.rar
http://www.filejungle.com/f/R5rCAt/D....avi.part2.rar

Filesonic :
http://www.filesonic.com/file/394739....avi.part1.rar
http://www.filesonic.com/file/394738....avi.part2.rar

Filepost :
http://filepost.com/files/bd9cef86/D...avi.part1.rar/
http://filepost.com/files/f7daa3am/D...avi.part2.rar/

PLEASE REPLY IF YOU LIKE MY POST!

SCREENSHOT :


NFO :
General
Complete name : Deadheads.2011.BRRIP.XVID-MADISON.avi
Format : AVI
Format/Info : Audio Video Interleave
File size : 991 MiB
Duration : 1h 34mn
Overall bit rate : 1 461 Kbps
Writing application : MEncoder SVN-r33823-4.1.2
Writing library : MPlayer

Video
ID : 0
Format : xvid
Codec ID : xvid
Duration : 1h 34mn
Bit rate : 1 337 Kbps
Width : 622 pixels
Height : 352 pixels
Display aspect ratio : 16:9
Frame rate : 23.976 fps
Bits/(Pixel*Frame) : 0.255
Stream size : 907 MiB (92%)

Audio
ID : 1
Format : MPEG Audio
Format version : Version 1
Format profile : Layer 3
Mode : Joint stereo
Mode extension : MS Stereo
Codec ID : 55
Codec ID/Hint : MP3
Duration : 1h 34mn
Bit rate mode : Variable
Bit rate : 112 Kbps
Channel(s) : 2 channels
Sampling rate : 48.0 KHz
Compression mode : Lossy
Stream size : 75.4 MiB (8%)
Alignment : Aligned on interleaves
Interleave, duration : 24 ms (0.58 video frame)
Interleave, preload duration : 454 ms