Puncture 2011 BRRip XviD-BBnRG

iNFo:
http://www.imdb.com/title/tt1582248/
Format : AVI
Format/Info : Audio Video Interleave
File size : 1.55 GiB
Duration : 1h 39mn
Overall bit rate : 2 223 Kbps

Video

ID : 0
Format : MPEG-4 Visual
Format profile : Advanced [email protected]
Format settings, BVOP : 2
Format settings, QPel : No
Format settings, GMC : No warppoints
Format settings, Matrix : Default (H.263)
Codec ID : XVID
Codec ID/Hint : XviD
Duration : 1h 39mn
Bit rate : 1 832 Kbps
Width : 688 pixels
Height : 288 pixels
Display aspect ratio : 2.40:1
Frame rate : 23.976 fps
Color space : YUV
Chroma subsampling : 4:2:0
Bit depth : 8 bits
Scan type : Progressive
Compression mode : Lossy
Bits/(Pixel*Frame) : 0.386
Stream size : 1.28 GiB (82%)
Writing library : XviD 1.2.1 (UTC 2008-12-04)

Audio

ID : 1
Format : AC-3
Format/Info : Audio Coding 3
Mode extension : CM (complete main)
Codec ID : 2000
Duration : 1h 39mn
Bit rate mode : Constant
Bit rate : 384 Kbps
Channel(s) : 6 channels
Channel positions : Front: L C R, Side: L R, LFE
Sampling rate : 48.0 KHz
Bit depth : 16 bits
Compression mode : Lossy
Stream size : 274 MiB (17%)
Alignment : Aligned on interleaves
Interleave, duration : 64 ms (1.53 video frames)
Interleave, preload duration : 192 ms

http://www.imdb.com/title/tt1582248/

Encoder: FridayToker :pimp:
Source(s): ANALOG (thanks)

Another fine release from BBnRG.


1-LINK:
http://www.wupload.com/file/25275294...XviD-BBnRG.rar
Or
http://www.filesonic.com/file/394632...XviD-BBnRG.rar
Or
http://www.fileserve.com/file/t5mzg8...XviD-BBnRG.rar

450mb-iNTERCHANGEABLE:
http://www.wupload.com/file/25275240....avi.part1.rar
http://www.wupload.com/file/25275228....avi.part2.rar
http://www.wupload.com/file/25275240....avi.part3.rar
http://www.wupload.com/file/25275210....avi.part4.rar
Or
http://www.filesonic.com/file/394632....avi.part1.rar
http://www.filesonic.com/file/394632....avi.part2.rar
http://www.filesonic.com/file/394631....avi.part3.rar
http://www.filesonic.com/file/394630....avi.part4.rar
Or
http://www.fileserve.com/file/ec9z2t....avi.part1.rar
http://www.fileserve.com/file/rFDeZK....avi.part2.rar
http://www.fileserve.com/file/7r4DWv....avi.part3.rar
http://www.fileserve.com/file/kjbABN....avi.part4.rar
Please-Say-Thanks-To-Keep-The-Topic-Alive.