The.Hangover.Part.II.2011.BRRip.720p.x264.Feel-Free



iMDB :
http://www.imdb.com/title/tt1411697/

Synopsis:
Two years after the bachelor party in Las Vegas, Phil, Stu, Alan, and Doug jet to Thailand for Stu's wedding. Stu's plan for a subdued pre-wedding brunch, however, goes seriously awry.
- My Upload.
- Working 100%.
- No Password.
- Interchangeable Links.
- 10% Recovery Added.



Fileserve :
http://www.fileserve.com/file/ja7ny9....mp4.part1.rar
http://www.fileserve.com/file/cSnCW3....mp4.part2.rar
http://www.fileserve.com/file/q7VNEf....mp4.part3.rar
http://www.fileserve.com/file/7HWm9s....mp4.part4.rar

Filejungle :
http://www.filejungle.com/f/Xh53Cy/T....mp4.part1.rar
http://www.filejungle.com/f/8kN2m8/T....mp4.part2.rar
http://www.filejungle.com/f/AEhU6d/T....mp4.part3.rar
http://www.filejungle.com/f/wxkkqU/T....mp4.part4.rar

Filesonic :
http://www.filesonic.com/file/394544....mp4.part1.rar
http://www.filesonic.com/file/394550....mp4.part2.rar
http://www.filesonic.com/file/394544....mp4.part3.rar
http://www.filesonic.com/file/394550....mp4.part4.rar

Filepost :
http://filepost.com/files/mfbdfmad/T...mp4.part1.rar/
http://filepost.com/files/5bmd5341/T...mp4.part2.rar/
http://filepost.com/files/8f192bfd/T...mp4.part3.rar/
http://filepost.com/files/2deaea29/T...mp4.part4.rar/

PLEASE REPLY IF YOU LIKE MY POST!

SCREENSHOT :


NFO :
General
Complete name : The.Hangover.Part.II.2011.BRRip.720p.x264.Feel-Free.mp4
Format : MPEG-4
Format profile : Base Media
Codec ID : isom
File size : 2.41 GiB
Duration : 1h 41mn
Overall bit rate : 3 391 Kbps
Encoded date : UTC 2011-11-16 13:57:17
Tagged date : UTC 2011-11-16 13:57:17

Video
ID : 1
Format : AVC
Format/Info : Advanced Video Codec
Format profile : [email protected]
Format settings, CABAC : Yes
Format settings, ReFrames : 3 frames
Format settings, GOP : N=1
Codec ID : avc1
Codec ID/Info : Advanced Video Coding
Duration : 1h 41mn
Bit rate mode : Variable
Bit rate : 3 000 Kbps
Maximum bit rate : 17.1 Mbps
Width : 1 280 pixels
Height : 536 pixels
Display aspect ratio : 2.40:1
Frame rate mode : Constant
Frame rate : 23.976 fps
Color space : YUV
Chroma subsampling : 4:2:0
Bit depth : 8 bits
Scan type : Progressive
Bits/(Pixel*Frame) : 0.182
Stream size : 2.09 GiB (87%)
Writing library : x264 core 75 r1251kMod e553a4c
Encoding settings : cabac=1 / ref=3 / deblock=1:0:0 / analyse=0x3:0x113 / me=umh / subme=7 / psy=1 / psy_rd=1.0:0.0 / mixed_ref=1 / me_range=12 / chroma_me=1 / trellis=2 / 8x8dct=1 / cqm=0 / deadzone=21,11 / chroma_qp_offset=-2 / threads=3 / nr=0 / decimate=1 / mbaff=0 / bframes=3 / b_pyramid=0 / b_adapt=2 / b_bias=0 / direct=1 / wpredb=1 / keyint=250 / keyint_min=25 / scenecut=40 / rc_lookahead=60 / rc=cbr / mbtree=1 / bitrate=3000 / ratetol=1.0 / qcomp=0.50 / qpmin=10 / qpmax=51 / qpstep=4 / vbv_maxrate=24000 / vbv_bufsize=24000 / ip_ratio=1.40 / aq=1:1.00
Encoded date : UTC 2011-11-16 13:57:17
Tagged date : UTC 2011-11-16 13:59:20

Audio
ID : 2
Format : AAC
Format/Info : Advanced Audio Codec
Format profile : LC
Codec ID : 40
Duration : 1h 41mn
Bit rate mode : Variable
Bit rate : 446 Kbps
Maximum bit rate : 575 Kbps
Channel(s) : 6 channels
Channel positions : Front: L C R, Side: L R, LFE
Sampling rate : 48.0 KHz
Compression mode : Lossy
Stream size : 325 MiB (13%)
Encoded date : UTC 2011-11-16 13:58:56
Tagged date : UTC 2011-11-16 13:59:20