Cowboys and Aliens 2011 DVDRip XviD-MAXSPEED

iNFo:
http://www.imdb.com/title/tt0409847/
Format : AVI
Format/Info : Audio Video
Interleave
Format profile : OpenDML
Duration
: 2h 16mn
Overall bit rate : 1 239
Kbps
Writing application : VirtualDubMod
1.5.10.2 (build 2542/release)
Writing library :
VirtualDubMod build
2542/release


Video
ID : 0
Format
: MPEG-4 Visual
Format profile :
[email protected]
Format settings, BVOP :
Yes
Format settings, QPel : No
Format
settings, GMC : No warppoints
Format settings,
Matrix : Default (MPEG)
Codec ID :
XVID
Codec ID/Hint : XviD
Duration : 2h
16mn
Bit rate : 1 038 Kbps
Width : 640
pixels
Height : 272 pixels
Display aspect
ratio : 2.35:1
Frame rate : 23.976
fps
Resolution : 24 bits
Colorimetry :
4:2:0
Scan type :
Progressive
Bits/(Pixel*Frame) :
0.249
Stream size : 1 013 MiB (84%)
Writing
library : XviD 1.2.1 (UTC
2008-12-04)

Audio
ID : 1
Format :
MPEG Audio
Format version : Version 1
Format
profile : Layer 3
Codec ID : 55
Codec
ID/Hint : MP3
Duration : 2h 16mn
Bit rate
mode : Constant
Bit rate : 192
Kbps
Channel(s) : 2 channels
Sampling rate :
48.0 KHz
Resolution : 16 bits
Stream size :
187 MiB (15%)
Alignment : Aligned on
interleaves
Interleave, duration : 24 ms (0.58
video frame)
Interleave, preload duration : 192
ms
Writing library : LAME3.98r


1-LINK:
http://www.filesonic.com/file/394459...D-MAXSPEED.avi
Or
http://www.wupload.com/file/25268557...D-MAXSPEED.avi
Or
http://www.filesonic.com/file/394462...D-MAXSPEED.rar
Or
http://www.fileserve.com/file/y2cbgq...D-MAXSPEED.rar

450mb-iNTERCHANGEABLE:
http://www.wupload.com/file/25268627....avi.part1.rar
http://www.wupload.com/file/25268627....avi.part2.rar
http://www.wupload.com/file/25268626....avi.part3.rar
Or
http://www.filesonic.com/file/394462....avi.part1.rar
http://www.filesonic.com/file/394462....avi.part2.rar
http://www.filesonic.com/file/394462....avi.part3.rar
Or
http://www.fileserve.com/file/66GN6M....avi.part1.rar
http://www.fileserve.com/file/DubE5a....avi.part2.rar
http://www.fileserve.com/file/ER4qPB....avi.part3.rar
Please-Say-Thanks-To-Keep-The-Topic-Alive.