INFO:

General
Complete name : The.Santa.Incident.2010.DVDRip.DiVX5-Eko.avi
Format : AVI
Format/Info : Audio Video Interleave
File size : 816 MiB
Duration : 1h 24mn
Overall bit rate : 1 347 Kbps

Video
ID : 0
Format : MPEG-4 Visual
Format settings, BVOP : No
Format settings, QPel : No
Format settings, GMC : No warppoints
Format settings, Matrix : Default (H.263)
Codec ID : DX50
Codec ID/Hint : DivX 5
Duration : 1h 24mn
Bit rate : 1 209 Kbps
Width : 720 pixels
Height : 480 pixels
Display aspect ratio : 3:2
Frame rate : 25.000 fps
Standard : NTSC
Color space : YUV
Chroma subsampling : 4:2:0
Bit depth : 8 bits
Scan type : Interlaced
Scan order : Top Field First
Compression mode : Lossy
Bits/(Pixel*Frame) : 0.140
Stream size : 733 MiB (90%)
Title : Video
Writing library : DivX 3013

Audio
ID : 1
Format : MPEG Audio
Format version : Version 1
Format profile : Layer 3
Codec ID : 55
Codec ID/Hint : MP3
Duration : 1h 24mn
Bit rate mode : Constant
Bit rate : 128 Kbps
Channel(s) : 2 channels
Sampling rate : 48.0 KHz
Compression mode : Lossy
Stream size : 77.6 MiB (10%)
Alignment : Split accross interleaves
Interleave, duration : 40 ms (1.00 video frame)
Interleave, preload duration : 500 ms
Title : Audio


SCREENSHOTS:


Single Link

http://www.fileserve.com/file/SMEwEhU/T.S.I.2010.avi
Or
http://www.filesonic.com/file/3899073734/T.S.I.2010.avi


Download from filesonic.com

http://www.filesonic.com/file/390296...2010.part1.rar
http://www.filesonic.com/file/390144...2010.part2.rar
http://www.filesonic.com/file/390151...2010.part3.rar


Download from fileserve.com
http://www.fileserve.com/file/PgCzQq...2010.part1.rar
http://www.fileserve.com/file/96UCGf...2010.part2.rar
http://www.fileserve.com/file/HzhzCX...2010.part3.rar

Download from filejungle.com
http://www.filejungle.com/f/eHTJkh/T.S.I.2010.part1.rar
http://www.filejungle.com/f/XuKsfJ/T.S.I.2010.part2.rar
http://www.filejungle.com/f/vqMxmH/T.S.I.2010.part3.rar