INFO:

The.Point.Of.Regret.2011.DvdRip.Xvid-TCM

General

Format : AVI
Format/Info : Audio Video Interleave
File size : 699 MiB
Duration : 1h 34mn
Overall bit rate : 1 037 Kbps
Movie name : T.P.O.R.TCM
Encoded by : Cooperman
Writing application : VirtualDubMod 1.5.4.1 (build 2178/release)
Copyright : TCM

Video
ID : 0
Format : MPEG-4 Visual
Format profile : Advanced [email protected]
Format settings, BVOP : 1
Format settings, QPel : No
Format settings, GMC : No warppoints
Format settings, Matrix : Custom
Codec ID : XVID
Codec ID/Hint : XviD
Duration : 1h 34mn
Bit rate : 918 Kbps
Width : 672 pixels
Height : 384 pixels
Display aspect ratio : 16:9
Frame rate : 23.976 fps
Color space : YUV
Chroma subsampling : 4:2:0
Bit depth : 8 bits
Scan type : Progressive
Compression mode : Lossy
Bits/(Pixel*Frame) : 0.148
Stream size : 619 MiB (89%)
Writing library : XviD 64

Audio
ID : 1
Format : MPEG Audio
Format version : Version 1
Format profile : Layer 3
Mode : Joint stereo
Mode extension : MS Stereo
Codec ID : 55
Codec ID/Hint : MP3
Duration : 1h 34mn
Bit rate mode : Constant
Bit rate : 112 Kbps
Channel(s) : 2 channels
Sampling rate : 44.1 KHz
Compression mode : Lossy
Stream size : 75.5 MiB (11%)
Alignment : Split accross interleaves
Interleave, duration : 83 ms (2.00 video frames)
Interleave, preload duration : 500 ms
Writing library : LAME3.98r
Encoding settings : -m j -V 4 -q 2 -lowpass 15.6 -b 112
Language : English
Subs : No
Sample : Yes


http://www.imdb.com/title/tt1621014/

source file : The.Point.Of.Regret.2011.PAL.DVDR-FEATURE

Additional Info: 1978. A mother, father and their 3 year old son are murdered. The killer their 12 year old son William. 2008. William is released with a new identity and wants to die. Ryan needs the story. A story of courage, sacrifice and love.


SCREENSHOTS:


Single Link

http://www.filesonic.com/file/389905...P.O.R.2011.avi
Or
http://www.fileserve.com/file/mkQgf8s/T.P.O.R.2011.avi


Download from filesonic.com

http://www.filesonic.com/file/390280...2011.part1.rar
http://www.filesonic.com/file/390280...2011.part2.rar
http://www.filesonic.com/file/390098...2011.part3.rar


Download from fileserve.com
http://www.fileserve.com/file/f2v2ny...2011.part1.rar
http://www.fileserve.com/file/BXXE8E...2011.part2.rar
http://www.fileserve.com/file/kaQa8B...2011.part3.rar

Download from filejungle.com
http://www.filejungle.com/f/NfK3tt/T...2011.part1.rar
http://www.filejungle.com/f/qTXdns/T...2011.part2.rar
http://www.filejungle.com/f/txvbt8/T...2011.part3.rar