The Twilight Saga Breaking Dawn Part-1 CAM-P2P

iNFo:
http://www.imdb.com/title/tt1324999/
Format/Info : Audio Video Interleave
File size : 698 MiB
Duration : 1h 44mn
Overall bit rate : 930 Kbps

Video
ID : 0
Format : MPEG-4 Visual
Format profile : [email protected]
Format settings, BVOP : 1
Format settings, QPel : No
Format settings, GMC : No warppoints
Format settings, Matrix : Default (H.263)
Muxing mode : Packed bitstream
Codec ID : DX50
Codec ID/Hint : DivX 5
Duration : 1h 44mn
Bit rate : 804 Kbps
Width : 592 pixels
Height : 256 pixels
Display aspect ratio : 2.35:1
Frame rate : 25.000 fps
Color space : YUV
Chroma subsampling : 4:2:0
Bit depth : 8 bits
Scan type : Progressive
Compression mode : Lossy
Bits/(Pixel*Frame) : 0.212
Stream size : 603 MiB (86%)
Writing library : XviD 1.1.2 (UTC 2006-11-01)

Audio
ID : 1
Format : MPEG Audio
Format version : Version 1
Format profile : Layer 3
Mode : Joint stereo
Mode extension : MS Stereo
Codec ID : 55
Codec ID/Hint : MP3
Duration : 1h 44mn
Bit rate mode : Constant
Bit rate : 96.0 Kbps
Channel(s) : 2 channels
Sampling rate : 44.1 KHz
Compression mode : Lossy
Delay relative to video : 10ms
Stream size : 72.0 MiB (10%)
Alignment : Split accross interleaves
Interleave, duration : 26 ms (0.65 video frame)
Interleave, preload duration : 47 ms


1-LINK:
http://www.filesonic.com/file/394198...-1.CAM-P2P.avi
Or
http://www.wupload.com/file/25252144...-1.CAM-P2P.avi
Or
http://www.filesonic.com/file/394208...AM-P2P.avi.rar
Or
http://www.fileserve.com/file/PftufR...AM-P2P.avi.rar
Please-Say-Thanks-To-Keep-The-Topic-Alive.