Til Siste Hinder 2011 BDRip XviD-SPRiNTER

iNFo:
http://www.imdb.com/title/tt2042695/
Format : AVI
Format/Info : Audio Video Interleave
File size : 702 MiB
Duration : 1h 24mn
Overall bit rate mode : Variable
Overall bit rate : 1 161 Kbps
Writing application : Nandub v1.0rc2
Writing library : Nandub build 1852/release

Video
ID : 0
Format : MPEG-4 Visual
Format profile : Advanced [email protected]
Format settings, BVOP : 2
Format settings, QPel : No
Format settings, GMC : No warppoints
Format settings, Matrix : Default (H.263)
Codec ID : XVID
Codec ID/Hint : XviD
Duration : 1h 24mn
Bit rate : 1 017 Kbps
Width : 608 pixels
Height : 256 pixels
Display aspect ratio : 2.40:1
Frame rate : 24.000 fps
Color space : YUV
Chroma subsampling : 4:2:0
Bit depth : 8 bits
Scan type : Progressive
Compression mode : Lossy
Bits/(Pixel*Frame) : 0.272
Stream size : 615 MiB (88%)
Writing library : XviD 1.2.1 (UTC 2008-12-04)

Audio
ID : 1
Format : MPEG Audio
Format version : Version 1
Format profile : Layer 3
Mode : Joint stereo
Mode extension : MS Stereo
Codec ID : 55
Codec ID/Hint : MP3
Duration : 1h 24mn
Bit rate mode : Variable
Bit rate : 131 Kbps
Minimum bit rate : 128 Kbps
Channel(s) : 2 channels
Sampling rate : 48.0 KHz
Compression mode : Lossy
Stream size : 79.1 MiB (11%)
Alignment : Aligned on interleaves
Interleave, duration : 24 ms (0.58 video frame)
Interleave, preload duration : 152 ms
Writing library : LAME3.95
Encoding settings : -m j -V 4 -q 3 -lowpass 18 --vbr-old -b 128



1-LINK:
http://www.filesonic.com/file/393338...D-SPRiNTER.rar
Or
http://www.wupload.com/file/25215751...D-SPRiNTER.rar
Or
http://www.fileserve.com/file/bgu7jU...D-SPRiNTER.rar
Please-Say-Thanks-To-Keep-The-Topic-Alive.