Warrior 2011 TS XviD - MiSTERE

iNFo:
Warrior 2011 TS XviD - MiSTERE

http://www.imdb.com/title/tt1291584/

Video
ID : 0
Format : MPEG-4 Visual
Format profile : Advanced [email protected]
Format settings, BVOP : 2
Format settings, QPel : No
Format settings, GMC : No warppoints
Format settings, Matrix : Default (H.263)
Muxing mode : Packed bitstream
Codec ID : XVID
Codec ID/Hint : XviD
Duration : 2h 7mn
Bit rate : 2 102 Kbps
Width : 720 pixels
Height : 288 pixels
Display aspect ratio : 2.500
Frame rate : 25.000 fps
Color space : YUV
Chroma subsampling : 4:2:0
Bit depth : 8 bits
Scan type : Progressive
Compression mode : Lossy
Bits/(Pixel*Frame) : 0.405
Stream size : 1.87 GiB (94%)
Writing library : XviD 64

Audio
ID : 1
Format : MPEG Audio
Format version : Version 1
Format profile : Layer 3
Mode : Joint stereo
Mode extension : MS Stereo
Codec ID : 55
Codec ID/Hint : MP3
Duration : 2h 7mn
Bit rate mode : Constant
Bit rate : 128 Kbps
Channel(s) : 2 channels
Sampling rate : 44.1 KHz
Compression mode : Lossy
Stream size : 117 MiB (6%)
Alignment : Split accross interleaves
Interleave, duration : 40 ms (1.00 video frame)


Thanks to TNZ for the 720p
Cropped Resized and Tweaked RGB


1-LINK:
http://www.wupload.com/file/23913299...iD-MiSTERE.avi
Or
http://www.filesonic.com/file/391863...iD-MiSTERE.avi

450mb-iNTERCHANGEABLE:
http://www.wupload.com/file/24704704....avi.part1.rar
http://www.wupload.com/file/24707232....avi.part2.rar
http://www.wupload.com/file/24703450....avi.part3.rar
http://www.wupload.com/file/24701628....avi.part4.rar
http://www.wupload.com/file/24713066....avi.part5.rar
Or
http://www.filesonic.com/file/391902....avi.part1.rar
http://www.filesonic.com/file/391902....avi.part2.rar
http://www.filesonic.com/file/391902....avi.part3.rar
http://www.filesonic.com/file/391902....avi.part4.rar
http://www.filesonic.com/file/391903....avi.part5.rar
Or
http://www.fileserve.com/file/yyxaM6....avi.part1.rar
http://www.fileserve.com/file/VBCmWF....avi.part2.rar
http://www.fileserve.com/file/XXgtn2....avi.part3.rar
http://www.fileserve.com/file/YZYtwP....avi.part4.rar
http://www.fileserve.com/file/2mZTpG....avi.part5.rar
Please-Say-Thanks-To-Keep-The-Topic-Alive.