Fire.in.Babylon.2010.DVDRip.XviD-eXceSs



IMDB :
http://www.imdb.com/title/tt1727790/



Synopsis:
Feature documentary about the great West Indies cricket team of the 1970′s/80′s.
Wupload :
http://www.wupload.com/file/23299432...id-fib.avi.rar

Fileserve :
http://www.fileserve.com/file/8dQzTT...id-fib.avi.rar

Filejungle :
http://www.filejungle.com/f/4DXj3S/e...id-fib.avi.rar

Filesonic :
http://www.filesonic.com/file/389362...id-fib.avi.rar

PLEASE REPLY IF YOU LIKE MY POST!

SCREENSHOT :


NFO :
General
Complete name : excess-xvid-fib.avi
Format : AVI
Format/Info : Audio Video Interleave
File size : 696 MiB
Duration : 1h 23mn
Overall bit rate : 1 163 Kbps
Writing application : VirtualDubMod 1.5.10.2 (build 2540/release)
Writing library : VirtualDubMod build 2540/release

Video
ID : 0
Format : MPEG-4 Visual
Format profile : Advanced [email protected]
Format settings, BVOP : 2
Format settings, QPel : No
Format settings, GMC : No warppoints
Format settings, Matrix : Default (H.263)
Muxing mode : Packed bitstream
Codec ID : XVID
Codec ID/Hint : XviD
Duration : 1h 23mn
Bit rate : 992 Kbps
Width : 640 pixels
Height : 352 pixels
Display aspect ratio : 16:9
Frame rate : 29.970 fps
Color space : YUV
Chroma subsampling : 4:2:0
Bit depth : 8 bits
Scan type : Progressive
Compression mode : Lossy
Bits/(Pixel*Frame) : 0.147
Stream size : 594 MiB (85%)
Writing library : XviD 1.2.1 (UTC 2008-12-04)

Audio
ID : 1
Format : MPEG Audio
Format version : Version 1
Format profile : Layer 3
Mode : Joint stereo
Mode extension : MS Stereo
Codec ID : 55
Codec ID/Hint : MP3
Duration : 1h 23mn
Bit rate mode : Constant
Bit rate : 160 Kbps
Channel(s) : 2 channels
Sampling rate : 44.1 KHz
Compression mode : Lossy
Stream size : 95.8 MiB (14%)
Alignment : Split accross interleaves
Interleave, duration : 33 ms (1.00 video frame)
Interleave, preload duration : 500 ms