The.Hangover.Part.II.2011.720p.BRRip.DXVA.x264.AAC-TiMPE



IMDB :
http://www.imdb.com/title/tt1411697/



Synopsis:
Two years after the bachelor party in Las Vegas, Phil, Stu, Alan, and Doug jet to Thailand for Stu’s wedding. Stu’s plan for a subdued pre-wedding brunch, however, goes seriously awry.
Wupload :
http://www.wupload.com/file/23299331....mp4.part1.rar
http://www.wupload.com/file/23299359....mp4.part2.rar
http://www.wupload.com/file/23299360....mp4.part3.rar

Fileserve :
http://www.fileserve.com/file/ZYyEdp....mp4.part1.rar
http://www.fileserve.com/file/UtFTrd....mp4.part2.rar
http://www.fileserve.com/file/RRch4A....mp4.part3.rar

Filejungle :
http://www.filejungle.com/f/x5qqpd/T....mp4.part1.rar
http://www.filejungle.com/f/UdRx9g/T....mp4.part2.rar
http://www.filejungle.com/f/DHtBSd/T....mp4.part3.rar

Filesonic :
http://www.filesonic.com/file/389350....mp4.part1.rar
http://www.filesonic.com/file/389355....mp4.part2.rar
http://www.filesonic.com/file/389355....mp4.part3.rar

PLEASE REPLY IF YOU LIKE MY POST!

SCREENSHOT :


NFO :
General
Complete name : The.Hangover.Part.II.2011.720p.BRRip.DXVA.x264.AAC-TiMPE.mp4
Format : MPEG-4
Format profile : Base Media
Codec ID : isom
File size : 1.61 GiB
Duration : 1h 41mn
Overall bit rate : 2 267 Kbps
Encoded date : UTC 2011-11-16 10:45:05
Tagged date : UTC 2011-11-16 10:45:05

Video
ID : 1
Format : AVC
Format/Info : Advanced Video Codec
Format profile : [email protected]
Format settings, CABAC : Yes
Format settings, ReFrames : 5 frames
Codec ID : avc1
Codec ID/Info : Advanced Video Coding
Duration : 1h 41mn
Bit rate mode : Variable
Bit rate : 2 009 Kbps
Maximum bit rate : 12.1 Mbps
Width : 1 280 pixels
Height : 536 pixels
Display aspect ratio : 2.40:1
Frame rate mode : Constant
Frame rate : 23.976 fps
Color space : YUV
Chroma subsampling : 4:2:0
Bit depth : 8 bits
Scan type : Progressive
Bits/(Pixel*Frame) : 0.122
Stream size : 1.43 GiB (89%)
Writing library : x264 core 119 r2106 07efeb4
Encoding settings : cabac=1 / ref=5 / deblock=1:0:0 / analyse=0x3:0x113 / me=umh / subme=8 / psy=1 / psy_rd=1.15:0.00 / mixed_ref=1 / me_range=16 / chroma_me=1 / trellis=1 / 8x8dct=1 / cqm=0 / deadzone=21,11 / fast_pskip=1 / chroma_qp_offset=-2 / threads=12 / sliced_threads=0 / nr=0 / decimate=1 / interlaced=0 / bluray_compat=0 / constrained_intra=0 / bframes=3 / b_pyramid=2 / b_adapt=2 / b_bias=0 / direct=3 / weightb=1 / open_gop=0 / weightp=2 / keyint=250 / keyint_min=23 / scenecut=40 / intra_refresh=0 / rc_lookahead=50 / rc=crf / mbtree=1 / crf=21.5 / qcomp=0.60 / qpmin=0 / qpmax=69 / qpstep=4 / ip_ratio=1.40 / aq=1:1.00
Encoded date : UTC 2011-11-16 10:45:05
Tagged date : UTC 2011-11-16 10:45:30

Audio
ID : 2
Format : AAC
Format/Info : Advanced Audio Codec
Format profile : LC
Codec ID : 40
Duration : 1h 41mn
Bit rate mode : Variable
Bit rate : 254 Kbps
Maximum bit rate : 363 Kbps
Channel(s) : 6 channels
Channel positions : Front: L C R, Side: L R, LFE
Sampling rate : 48.0 KHz
Compression mode : Lossy
Stream size : 185 MiB (11%)
Encoded date : UTC 2011-11-16 10:45:26
Tagged date : UTC 2011-11-16 10:45:30