The Help 2011 DVDRiP XviD AC3- MiSTERE

iNFo:
The Help 2011 DVDRiP XviD AC3- MiSTERE
Description The Help 2011 DVDRiP XviD AC3- MiSTERE

http://www.imdb.com/title/tt1454029/

Video
ID : 0
Format : MPEG-4 Visual
Format profile : Advanced [email protected]
Format settings, BVOP : 2
Format settings, QPel : No
Format settings, GMC : No warppoints
Format settings, Matrix : Default (H.263)
Muxing mode : Packed bitstream
Codec ID : XVID
Codec ID/Hint : XviD
Duration : 2h 26mn
Bit rate : 1 792 Kbps
Width : 720 pixels
Height : 384 pixels
Display aspect ratio : 1.875
Frame rate : 23.976 fps
Color space : YUV
Chroma subsampling : 4:2:0
Bit depth : 8 bits
Scan type : Progressive
Compression mode : Lossy
Bits/(Pixel*Frame) : 0.270
Stream size : 1.83 GiB (82%)
Writing library : XviD 64

Audio
ID : 1
Format : AC-3
Format/Info : Audio Coding 3
Mode extension : CM (complete main)
Codec ID : 2000
Duration : 2h 26mn
Bit rate mode : Constant
Bit rate : 384 Kbps
Channel(s) : 6 channels
Channel positions : Front: L C R, Side: L R, LFE
Sampling rate : 48.0 KHz
Bit depth : 16 bits
Compression mode : Lossy
Stream size : 402 MiB (18%)
Alignment : Aligned on interleaves
Interleave, duration : 42 ms (1.00 video frame)



1-LINK:
http://www.filesonic.com/file/389297...3-_MiSTERE.avi
Or
http://www.wupload.com/file/23298748...3-_MiSTERE.avi

950mb-iNTERCHANGEABLE:
http://www.filesonic.com/file/389303....avi.part1.rar
http://www.filesonic.com/file/389300....avi.part2.rar
http://www.filesonic.com/file/389302....avi.part3.rar
Or
http://www.wupload.com/file/23298866....avi.part1.rar
http://www.wupload.com/file/23298854....avi.part2.rar
http://www.wupload.com/file/23298949....avi.part3.rar
Or
http://www.fileserve.com/file/PGjnnw....avi.part1.rar
http://www.fileserve.com/file/AWRXBf....avi.part2.rar
http://www.fileserve.com/file/YSstde....avi.part3.rar
Please-Say-Thanks-To-Keep-The-Topic-Alive.