One Day 2011 BRRip XviD-BiDA

iNFo:
http://www.imdb.com/title/tt1563738/
General
Complete name : One.Day.2011.BRRip.XviD-BiDA.avi
Format : AVI
Format/Info : Audio Video Interleave
File size : 697 MiB
Duration : 1h 47mn
Overall bit rate : 907 Kbps

Video
ID : 0
Format : MPEG-4 Visual
Format profile : Advanced [email protected]
Format settings, BVOP : 2
Format settings, QPel : No
Format settings, GMC : No warppoints
Format settings, Matrix : Default (H.263)
Codec ID : XVID
Codec ID/Hint : XviD
Duration : 1h 47mn
Bit rate : 766 Kbps
Width : 624 pixels
Height : 256 pixels
Display aspect ratio : 2.40:1
Frame rate : 23.976 fps
Color space : YUV
Chroma subsampling : 4:2:0
Bit depth : 8 bits
Scan type : Progressive
Compression mode : Lossy
Bits/(Pixel*Frame) : 0.200
Stream size : 589 MiB (84%)
Writing library : XviD 1.2.1 (UTC 2008-12-04)

Audio
ID : 1
Format : MPEG Audio
Format version : Version 1
Format profile : Layer 3
Codec ID : 55
Codec ID/Hint : MP3
Duration : 1h 47mn
Bit rate mode : Constant
Bit rate : 128 Kbps
Channel(s) : 2 channels
Sampling rate : 48.0 KHz
Compression mode : Lossy
Stream size : 98.4 MiB (14%)
Alignment : Aligned on interleaves
Interleave, duration : 24 ms (0.58 video frame)
Writing library : LAME3.98.2


1-LINK:
http://www.filesonic.com/file/386202....XviD-BiDA.avi
Or
http://www.wupload.com/file/23292098....XviD-BiDA.avi
Or
http://www.filesonic.com/file/386224...D-BiDA.avi.rar
Or
http://www.fileserve.com/file/uavm53...D-BiDA.avi.rar
Please-Say-Thanks-To-Keep-The-Topic-Alive.