One.Day.2011.BRRip.XviD-BiDA



IMDB :
http://www.imdb.com/title/tt1563738/



Synopsis:
Emma and Dexter meet on the night of their university graduation. We see them every year on the anniversary of that date July 15th. Emma is smart but success doesn’t come quickly for her, whereas for Dexter, success and women come very easily. Through the years they grow apart as their lives take different directions and they meet other people. But as they grow apart from those other people and their lives start taking opposite directions again, Emma and Dexter find that they belong with each other.
Fileserve :
http://www.fileserve.com/file/yup2B5....XviD-BiDA.rar

Filejungle :
http://www.filejungle.com/f/xbV8FQ/O....XviD-BiDA.rar

Filesonic :
http://www.filesonic.com/file/377085....XviD-BiDA.rar

Filepost :
http://filepost.com/files/1125c8ec/O...XviD-BiDA.rar/

PLEASE REPLY IF YOU LIKE MY POST!

SCREENSHOT :


NFO :
General
Complete name : One.Day.2011.BRRip.XviD-BiDA.avi
Format : AVI
Format/Info : Audio Video Interleave
File size : 697 MiB
Duration : 1h 47mn
Overall bit rate : 907 Kbps

Video
ID : 0
Format : MPEG-4 Visual
Format profile : Advanced [email protected]
Format settings, BVOP : 2
Format settings, QPel : No
Format settings, GMC : No warppoints
Format settings, Matrix : Default (H.263)
Codec ID : XVID
Codec ID/Hint : XviD
Duration : 1h 47mn
Bit rate : 766 Kbps
Width : 624 pixels
Height : 256 pixels
Display aspect ratio : 2.40:1
Frame rate : 23.976 fps
Color space : YUV
Chroma subsampling : 4:2:0
Bit depth : 8 bits
Scan type : Progressive
Compression mode : Lossy
Bits/(Pixel*Frame) : 0.200
Stream size : 589 MiB (84%)
Writing library : XviD 1.2.1 (UTC 2008-12-04)

Audio
ID : 1
Format : MPEG Audio
Format version : Version 1
Format profile : Layer 3
Codec ID : 55
Codec ID/Hint : MP3
Duration : 1h 47mn
Bit rate mode : Constant
Bit rate : 128 Kbps
Channel(s) : 2 channels
Sampling rate : 48.0 KHz
Compression mode : Lossy
Stream size : 98.4 MiB (14%)
Alignment : Aligned on interleaves
Interleave, duration : 24 ms (0.58 video frame)
Writing library : LAME3.98.2