Russell.Howard.Right.Here.Right.Now.DVDRip.XviD-HAGGiS



IMDB :
http://www.imdb.com/name/nm2224565/



Synopsis:
One of Britains most exciting and popular stand-up comedians, Russell Howard is back in 2011 with his third sell-out tour Right Here, Right Now. The star of Russell Howard\’s Good News and Mock The Week never fails to entertain with his trademark mix of eloquent gags and deft storytelling.
Wupload :
http://www.wupload.com/file/23255252...vid-haggis.rar

Fileserve :
http://www.fileserve.com/file/ms5eMf...vid-haggis.rar

Filejungle :
http://www.filejungle.com/f/BrHqY6/r...vid-haggis.rar

Filesonic :
http://www.filesonic.com/file/372983...vid-haggis.rar

PLEASE REPLY IF YOU LIKE MY POST!

SCREENSHOT :


NFO :
General
Complete name : russell.howard.right.here.right.now.dvdrip.xvid-haggis.avi
Format : AVI
Format/Info : Audio Video Interleave
File size : 700 MiB
Duration : 1h 31mn
Overall bit rate mode : Variable
Overall bit rate : 1 070 Kbps
Writing application : VirtualDubMod 1.5.10.2 (build 2540/release)
Writing library : VirtualDubMod build 2540/release

Video
ID : 0
Format : MPEG-4 Visual
Format profile : Advanced [email protected]
Format settings, BVOP : 2
Format settings, QPel : No
Format settings, GMC : No warppoints
Format settings, Matrix : Default (H.263)
Muxing mode : Packed bitstream
Codec ID : XVID
Codec ID/Hint : XviD
Duration : 1h 31mn
Bit rate : 934 Kbps
Width : 624 pixels
Height : 352 pixels
Display aspect ratio : 16:9
Frame rate : 25.000 fps
Color space : YUV
Chroma subsampling : 4:2:0
Bit depth : 8 bits
Scan type : Progressive
Compression mode : Lossy
Bits/(Pixel*Frame) : 0.170
Stream size : 611 MiB (87%)
Writing library : XviD 57

Audio
ID : 1
Format : MPEG Audio
Format version : Version 1
Format profile : Layer 3
Mode : Joint stereo
Mode extension : MS Stereo
Codec ID : 55
Codec ID/Hint : MP3
Duration : 1h 31mn
Bit rate mode : Variable
Bit rate : 128 Kbps
Channel(s) : 2 channels
Sampling rate : 48.0 KHz
Compression mode : Lossy
Stream size : 80.3 MiB (11%)
Alignment : Aligned on interleaves
Interleave, duration : 24 ms (0.60 video frame)
Interleave, preload duration : 490 ms
Writing library : LAME3.98r
Encoding settings : -m j -V 4 -q 2 -lowpass 17 --abr 128