Cane.Toads.The.Conquest.2010.BDRip.XviD-aAF



IMDB :
http://www.imdb.com/title/tt1568924/



Synopsis:
A documentary horror film about the environmental devastation left in the wake of the giant toads' unstoppable march across Australia.
Wupload :
http://www.wupload.com/file/23255388...bdrip.xvid.rar

Fileserve :
http://www.fileserve.com/file/3CrPK2...bdrip.xvid.rar

Filejungle :
http://www.filejungle.com/f/uRjZ4r/a...bdrip.xvid.rar

Filesonic :
http://www.filesonic.com/file/373022...bdrip.xvid.rar

PLEASE REPLY IF YOU LIKE MY POST!

SCREENSHOT :


NFO :
General
Complete name : aaf-cane.toads.the.conquest.2010.bdrip.xvid.avi
Format : AVI
Format/Info : Audio Video Interleave
File size : 700 MiB
Duration : 1h 23mn
Overall bit rate mode : Variable
Overall bit rate : 1 170 Kbps
Writing application : VirtualDubMod 1.5.10.2 (build 2540/release)
Writing library : VirtualDubMod build 2540/release

Video
ID : 0
Format : MPEG-4 Visual
Format profile : Advanced [email protected]
Format settings, BVOP : 2
Format settings, QPel : No
Format settings, GMC : No warppoints
Format settings, Matrix : Default (H.263)
Codec ID : XVID
Codec ID/Hint : XviD
Duration : 1h 23mn
Bit rate : 987 Kbps
Width : 624 pixels
Height : 352 pixels
Display aspect ratio : 16:9
Frame rate : 23.976 fps
Color space : YUV
Chroma subsampling : 4:2:0
Bit depth : 8 bits
Scan type : Progressive
Compression mode : Lossy
Bits/(Pixel*Frame) : 0.187
Stream size : 590 MiB (84%)
Writing library : XviD 64

Audio
ID : 1
Format : MPEG Audio
Format version : Version 1
Format profile : Layer 3
Mode : Joint stereo
Mode extension : MS Stereo
Codec ID : 55
Codec ID/Hint : MP3
Duration : 1h 23mn
Bit rate mode : Variable
Bit rate : 128 Kbps
Channel(s) : 2 channels
Sampling rate : 48.0 KHz
Compression mode : Lossy
Stream size : 76.6 MiB (11%)
Alignment : Aligned on interleaves
Writing library : LAME3.90.
Encoding settings : -m j -V 4 -q 2 -lowpass 17.6 --abr 128