Life In A Day 2011 BRRip XviD AC3-MASSiVE



IMDB :
http://www.imdb.com/title/tt1687247/



Synopsis:
What do you get when you ask the people of the world to chronicle a single day in their lives? You get 80,000 submissions, 4500 hours of footage, from 192 countries. Kevin Macdonald has taken this raw material, all shot on July 24, 2010, and created a 90-minute paean to what it means to be human in the world today.
Wupload :
http://www.wupload.com/file/23255340...SiVE.part1.rar
http://www.wupload.com/file/23255302...SiVE.part2.rar
http://www.wupload.com/file/23255236...SiVE.part3.rar

Fileserve :
http://www.fileserve.com/file/cPbu4b...SiVE.part1.rar
http://www.fileserve.com/file/bpbMhn...SiVE.part2.rar
http://www.fileserve.com/file/bcWBPU...SiVE.part3.rar

Filejungle :
http://www.filejungle.com/f/6bmGD3/L...SiVE.part1.rar
http://www.filejungle.com/f/7FfcBK/L...SiVE.part2.rar
http://www.filejungle.com/f/kjxhFX/L...SiVE.part3.rar

Filesonic :
http://www.filesonic.com/file/372985...SiVE.part1.rar
http://www.filesonic.com/file/372984...SiVE.part2.rar
http://www.filesonic.com/file/372976...SiVE.part3.rar

PLEASE REPLY IF YOU LIKE MY POST!

SCREENSHOT :


NFO :
General
Complete name : LIFE.IN.A.DAY.2011.BRRip.XviD.AC3-MASSiVE.avi
Format : AVI
Format/Info : Audio Video Interleave
File size : 1.40 GiB
Duration : 1h 34mn
Overall bit rate : 2 115 Kbps

Video
ID : 0
Format : MPEG-4 Visual
Format profile : Advanced [email protected]
Format settings, BVOP : 2
Format settings, QPel : No
Format settings, GMC : No warppoints
Format settings, Matrix : Default (H.263)
Codec ID : XVID
Codec ID/Hint : XviD
Duration : 1h 34mn
Bit rate : 1 659 Kbps
Width : 720 pixels
Height : 400 pixels
Display aspect ratio : 16:9
Frame rate : 24.000 fps
Color space : YUV
Chroma subsampling : 4:2:0
Bit depth : 8 bits
Scan type : Progressive
Compression mode : Lossy
Bits/(Pixel*Frame) : 0.240
Stream size : 1.10 GiB (78%)
Writing library : XviD 1.2.1 (UTC 2008-12-04)

Audio
ID : 1
Format : AC-3
Format/Info : Audio Coding 3
Mode extension : CM (complete main)
Codec ID : 2000
Duration : 1h 34mn
Bit rate mode : Constant
Bit rate : 448 Kbps
Channel(s) : 6 channels
Channel positions : Front: L C R, Side: L R, LFE
Sampling rate : 48.0 KHz
Bit depth : 16 bits
Compression mode : Lossy
Stream size : 304 MiB (21%)
Alignment : Aligned on interleaves
Interleave, duration : 64 ms (1.54 video frames)
Interleave, preload duration : 192 ms
Title : Life.in.a.Day.2011.720p.BluRay.x264.DTS-WiKi - [2] English