The.Hangover.Part.II.2011.BRRip.Ac3.Xvid-ANALOG



IMDB :
http://www.imdb.com/title/tt1411697/



Synopsis:
Two years after the bachelor party in Las Vegas, Phil, Stu, Alan, and Doug jet to Thailand for Stu’s wedding. Stu’s plan for a subdued pre-wedding brunch, however, goes seriously awry.
Wupload :
http://www.wupload.com/file/23254743...ALOG.part1.rar
http://www.wupload.com/file/23254743...ALOG.part2.rar
http://www.wupload.com/file/23254753...ALOG.part3.rar

Fileserve :
http://www.fileserve.com/file/38gSzp...ALOG.part1.rar
http://www.fileserve.com/file/T3TUgw...ALOG.part2.rar
http://www.fileserve.com/file/k6D26k...ALOG.part3.rar

Filejungle :
http://www.filejungle.com/f/dsxSX5/T...ALOG.part1.rar
http://www.filejungle.com/f/TUQAs7/T...ALOG.part2.rar
http://www.filejungle.com/f/CmgPTj/T...ALOG.part3.rar

Filesonic :
http://www.filesonic.com/file/372972...ALOG.part1.rar
http://www.filesonic.com/file/372968...ALOG.part2.rar
http://www.filesonic.com/file/372968...ALOG.part3.rar

PLEASE REPLY IF YOU LIKE MY POST!

SCREENSHOT :


NFO :
General
Complete name : T.H.P.II.BRR.ANALOG.avi
Format : AVI
Format/Info : Audio Video Interleave
File size : 1.44 GiB
Duration : 1h 41mn
Overall bit rate : 2 031 Kbps
Movie name : T.H.P.II.BRR.ANALOG
Writing application : VirtualDub build 32842/release
Copyright : ANALOG

Video
ID : 0
Format : MPEG-4 Visual
Format profile : Advanced [email protected]
Format settings, BVOP : 2
Format settings, QPel : No
Format settings, GMC : No warppoints
Format settings, Matrix : Default (H.263)
Muxing mode : Packed bitstream
Codec ID : XVID
Codec ID/Hint : XviD
Duration : 1h 41mn
Bit rate : 1 573 Kbps
Width : 688 pixels
Height : 304 pixels
Display aspect ratio : 2.25:1
Frame rate : 23.976 fps
Color space : YUV
Chroma subsampling : 4:2:0
Bit depth : 8 bits
Scan type : Progressive
Compression mode : Lossy
Bits/(Pixel*Frame) : 0.314
Stream size : 1.12 GiB (77%)
Writing library : XviD 1.2.1 (UTC 2008-12-04)

Audio
ID : 1
Format : AC-3
Format/Info : Audio Coding 3
Mode extension : CM (complete main)
Codec ID : 2000
Duration : 1h 41mn
Bit rate mode : Constant
Bit rate : 448 Kbps
Channel(s) : 6 channels
Channel positions : Front: L C R, Side: L R, LFE
Sampling rate : 48.0 KHz
Bit depth : 16 bits
Compression mode : Lossy
Stream size : 326 MiB (22%)
Alignment : Aligned on interleaves
Interleave, duration : 42 ms (1.00 video frame)
Interleave, preload duration : 512 ms
Language : un