Born.Bad.2011.UNCUT.BRRip.Ac3.Xvid-ANALOG



IMDB :
http://www.imdb.com/title/tt1869315/



Synopsis:
Dawta says it’s the truth, but other family members remember differently. At once epic and domestic, Tucker Green’s explosive drama follows one family trying to make sense of their past.
Wupload :
http://www.wupload.com/file/23254744...ALOG.part1.rar
http://www.wupload.com/file/23254744...ALOG.part2.rar

Fileserve :
http://www.fileserve.com/file/ceQ628...ALOG.part1.rar
http://www.fileserve.com/file/69z4qE...ALOG.part2.rar

Filejungle :
http://www.filejungle.com/f/hTzW86/B...ALOG.part1.rar
http://www.filejungle.com/f/R2nZzq/B...ALOG.part2.rar

Filesonic :
http://www.filesonic.com/file/372967...ALOG.part1.rar
http://www.filesonic.com/file/372968...ALOG.part2.rar

PLEASE REPLY IF YOU LIKE MY POST!

SCREENSHOT :


NFO :
General
Complete name : B.B.2011.BRR.ANALOG.avi
Format : AVI
Format/Info : Audio Video Interleave
File size : 1.37 GiB
Duration : 1h 32mn
Overall bit rate : 2 130 Kbps
Movie name : B.B.2011.BRR.ANALOG
Writing application : VirtualDub build 32842/release
Copyright : ANALOG

Video
ID : 0
Format : MPEG-4 Visual
Format profile : Advanced [email protected]
Format settings, BVOP : 1
Format settings, QPel : No
Format settings, GMC : No warppoints
Format settings, Matrix : Default (H.263)
Muxing mode : Packed bitstream
Codec ID : XVID
Codec ID/Hint : XviD
Duration : 1h 32mn
Bit rate : 1 673 Kbps
Width : 720 pixels
Height : 404 pixels
Display aspect ratio : 16:9
Frame rate : 23.976 fps
Color space : YUV
Chroma subsampling : 4:2:0
Bit depth : 8 bits
Scan type : Progressive
Compression mode : Lossy
Bits/(Pixel*Frame) : 0.240
Stream size : 1.08 GiB (79%)
Writing library : XviD 1.2.1 (UTC 2008-12-04)

Audio
ID : 1
Format : AC-3
Format/Info : Audio Coding 3
Mode extension : CM (complete main)
Codec ID : 2000
Duration : 1h 32mn
Bit rate mode : Constant
Bit rate : 448 Kbps
Channel(s) : 6 channels
Channel positions : Front: L C R, Side: L R, LFE
Sampling rate : 48.0 KHz
Bit depth : 16 bits
Compression mode : Lossy
Stream size : 296 MiB (21%)
Alignment : Aligned on interleaves
Interleave, duration : 42 ms (1.00 video frame)
Interleave, preload duration : 512 ms
Language : un