Earthling 2011 DvDRiP XviD - VISUALiSE

iNFo:
http://www.imdb.com/title/tt1398999/
Video
ID : 0
Format : MPEG-4 Visual
Codec ID : XVID
Codec ID/Hint : XviD
Duration : 1h 46mn
Bit rate : 76.7 Kbps
Width : 720 pixels
Height : 402 pixels
Display aspect ratio : 16:9
Frame rate : 29.970 fps
Color space : YUV
Chroma subsampling : 4:2:0
Compression mode : Lossy
Bits/(Pixel*Frame) : 0.009
Stream size : 58.2 MiB (5%)

Audio
ID : 1
Format : MPEG Audio
Codec ID : 55
Codec ID/Hint : MP3
Duration : 1h 46mn
Bit rate : 128 Kbps
Channel(s) : 2 channels
Sampling rate : 48.0 KHz
Compression mode : Lossy
Stream size : 97.2 MiB (8%)
Alignment : Aligned on interleaves


1-LINK:
http://www.filesonic.com/file/327944..._VISUALiSE.avi
Or
http://www.wupload.com/file/20909148..._VISUALiSE.avi
Or
http://www.filesonic.com/file/327961..._VISUALiSE.avi
Or
http://www.fileserve.com/file/k4dM6B..._VISUALiSE.avi
Please-Say-Thanks-To-Keep-The-Topic-Alive.